Омерзительная восьмерка / The Hateful Eight (Квентин Тарантино) [2015, США, триллер, драма, криминал, детектив, вестерн, BDRip-AVC] Dub + AVO (Есарев) + Original (Eng) + Sub (Rus, Eng)

Ответить на тему
 

lotto ®

Стаж: 7 лет 7 месяцев

Сообщений: 221

Симпатии: 409

Омерзительная восьмерка / The Hateful Eight
«Без хорошей причины сюда не лезут»
-- --Страна: США
Жанр: триллер, драма, криминал, детектив, вестерн
Год выпуска: 2015
Продолжительность: 02:47:45
Перевод: Профессиональный (дублированный)
Cубтитры: русские, английские
Оригинальная аудиодорожка: английский--Режиссер: Квентин Тарантино
В ролях: Курт Рассел, Сэмюэл Л. Джексон, Тим Рот, Майкл Мэдсен, Дженнифер Джейсон Ли, Ченнинг Татум, Уолтон Гоггинс, Зои Белл, Брюс Дерн, Демиан Бишир--Описание: США после Гражданской войны. Легендарный охотник за головами Джон Рут по кличке Вешатель конвоирует заключенную. По пути к ним прибиваются еще несколько путешественников. Снежная буря вынуждает компанию искать укрытие в лавке на отшибе, где уже расположилось весьма пестрое общество: генерал конфедератов, мексиканец, ковбой… И один из них — не тот, за кого себя выдает.--

OST

Quentin Tarantino's The Hateful Eight [Music by Ennio Morricone]
Формат: MP3, tracks, 320kbps
Год выпуска: 2015
Страна: США
Жанр: Score
Продолжительность: 01:12:48
01. Ennio Morricone - L'Ultima Diligenza Di Red Rock (7:32)
02. Ennio Morricone - Overture (3:11)
03. Jennifer Jason Leigh, Kurt Russell, Samuel L. Jackson - "Major Warren Meet Daisy Domergue" (0:33)
04. Ennio Morricone - Narratore Letterario (2:02)
05. The White Stripes - Apple Blossom (2:15)
06. Tim Roth & Kurt Russell - "Frontier Justice" (1:51)
07. Ennio Morricone - L'Ultima Diligenza Di Red Rock (2:38)
08. Ennio Morricone - Neve (12:17)
09. Kurt Russell & Michael Madsen - "This Here Is Daisy Domergue" (1:02)
10. Ennio Morricone - Sei Cavalli (1:22)
11. Ennio Morricone - Raggi Di Sole Sulla Montagna (1:42)
12. Samuel L. Jackson, Walton Goggins, Bruce Dern - "Son Of The Bloody Nigger Killer Of Baton Rouge" (2:44)
13. Jennifer Jason Leigh - Jim Jones At Botany Bay (4:11)
14. Ennio Morricone - Neve (2:06)
15. Samuel L. Jackson, Demián Bichir, Walton Goggins - "Uncle Charlie's Stew" (1:42)
16. Ennio Morricone - I Quattro Passeggeri (1:50)
17. Ennio Morricone - La Musica Prima Del Massacro (2:01)
18. Ennio Morricone - L'Inferno Bianco (3:32)
19. Tim Roth, Walton Goggins, Kurt Russell - The Suggestive Oswaldo Mobray (0:48)
20. David Hess - Now You're All Alone (1:31)
21. Ennio Morricone - Sangue E Neve (2:06)
22. Ennio Morricone - L'Inferno Bianco (3:33)
23. Ennio Morricone - Neve (2:03)
24. Walton Goggins, Jennifer Jason Leigh, Michael Madsen - Daisy's Speech (1:33)
25. Ennio Morricone - La Lettera Di Lincoln (1:42)
26. Ennio Morricone & Walter Goggins - La Lettera Di Lincoln (1:47)
27. Roy Orbison - There Won't Be Many Coming Home (2:45)
28. Ennio Morricone - La Puntura Della Morte (0:2)
--Качество видео: BDRip-AVC
Формат видео: MKV
Видео: H264 1040x376 23.976fps 1166 kbps
Аудио: AAC 48000Hz 6ch 409 kbps (русский, дублированный)
Аудио 2: AAC 48000Hz 6ch 365 kbps (русский, авторский одноголосый) Д.Есарев
Аудио 3: AAC 48000Hz 6ch 353 kbps (оригинал)
Формат субтитров: softsub (SRT)

MediaInfo

General
Unique ID : 193324995487023221640773840385879193928 (0x91710A2F115F2DE58A0C37145A4E3948)
Complete name : The Hateful Eight.2015.BDRip-AVC.mkv
Format : Matroska
Format version : Version 4 / Version 2
File size : 2.68 GiB
Duration : 2h 47mn
Overall bit rate : 2 290 Kbps
Movie name : Омерзительная восьмерка
Encoded date : UTC 2016-03-13 14:06:21
Writing application : mkvmerge v7.9.0 ('Birds') 32bit
Writing library : libebml v1.3.1 + libmatroska v1.4.2
Video
ID : 1
Format : AVC
Format/Info : Advanced Video Codec
Format profile : [email protected]
Format settings, CABAC : Yes
Format settings, ReFrames : 8 frames
Codec ID : V_MPEG4/ISO/AVC
Duration : 2h 47mn
Bit rate : 1 166 Kbps
Width : 1 040 pixels
Height : 376 pixels
Display aspect ratio : 2.766
Frame rate mode : Constant
Frame rate : 23.976 (24000/1001) fps
Color space : YUV
Chroma subsampling : 4:2:0
Bit depth : 8 bits
Scan type : Progressive
Bits/(Pixel*Frame) : 0.124
Stream size : 1.37 GiB (51%)
Writing library : x264 core 148 r2638 7599210
Encoding settings : cabac=1 / ref=8 / deblock=1:-2:-2 / analyse=0x3:0x133 / me=umh / subme=9 / psy=1 / psy_rd=1.00:0.15 / mixed_ref=1 / me_range=32 / chroma_me=1 / trellis=2 / 8x8dct=1 / cqm=0 / deadzone=21,11 / fast_pskip=1 / chroma_qp_offset=-3 / threads=6 / lookahead_threads=1 / sliced_threads=0 / nr=0 / decimate=1 / interlaced=0 / bluray_compat=0 / constrained_intra=0 / bframes=7 / b_pyramid=2 / b_adapt=2 / b_bias=0 / direct=1 / weightb=1 / open_gop=0 / weightp=2 / keyint=240 / keyint_min=23 / scenecut=40 / intra_refresh=0 / rc=cqp / mbtree=0 / qp=19 / ip_ratio=1.40 / pb_ratio=1.30 / aq=0
Default : Yes
Forced : No
Audio #1
ID : 2
Format : AAC
Format/Info : Advanced Audio Codec
Format profile : LC
Codec ID : A_AAC
Duration : 2h 47mn
Bit rate : 409 Kbps
Channel(s) : 6 channels
Channel positions : Front: L C R, Side: L R, LFE
Sampling rate : 48.0 KHz
Frame rate : 46.875 fps (1024 spf)
Compression mode : Lossy
Delay relative to video : 20ms
Stream size : 491 MiB (18%)
Title : DUB
Language : Russian
Default : Yes
Forced : No
Audio #2
ID : 3
Format : AAC
Format/Info : Advanced Audio Codec
Format profile : LC
Codec ID : A_AAC
Duration : 2h 47mn
Bit rate : 365 Kbps
Channel(s) : 6 channels
Channel positions : Front: L C R, Side: L R, LFE
Sampling rate : 48.0 KHz
Frame rate : 46.875 fps (1024 spf)
Compression mode : Lossy
Delay relative to video : 20ms
Stream size : 437 MiB (16%)
Title : AVO (Есарев)
Language : Russian
Default : No
Forced : No
Audio #3
ID : 4
Format : AAC
Format/Info : Advanced Audio Codec
Format profile : LC
Codec ID : A_AAC
Duration : 2h 47mn
Bit rate : 353 Kbps
Channel(s) : 6 channels
Channel positions : Front: L C R, Side: L R, LFE
Sampling rate : 48.0 KHz
Frame rate : 46.875 fps (1024 spf)
Compression mode : Lossy
Delay relative to video : 20ms
Stream size : 416 MiB (15%)
Language : English
Default : No
Forced : No
Text #1
ID : 5
Format : UTF-8
Codec ID : S_TEXT/UTF8
Codec ID/Info : UTF-8 Plain Text
Duration : 2h 42mn
Bit rate : 89 bps
Count of elements : 1741
Stream size : 107 KiB (0%)
Language : Russian
Default : No
Forced : No
Text #2
ID : 6
Format : UTF-8
Codec ID : S_TEXT/UTF8
Codec ID/Info : UTF-8 Plain Text
Duration : 2h 38mn
Bit rate : 62 bps
Count of elements : 2633
Stream size : 72.2 KiB (0%)
Language : English
Default : No
Forced : No

Скриншот c названием фильма

Скриншоты






Создавать темы 14-Мар-2016 14:08

[Профиль]  [ЛС] 
Показать сообщения:    
Ответить на тему

Текущее время: 22-Авг 12:19

Часовой пояс: UTC + 5



Вы не можете начинать темы
Вы не можете отвечать на сообщения
Вы не можете редактировать свои сообщения
Вы не можете удалять свои сообщения
Вы не можете голосовать в опросах
Вы не можете прикреплять файлы к сообщениям
Вы не можете скачивать файлы