Ип Ман 3 / Yip Man 3 (Уилсон Ип / Wilson Yip) [2015, Китай/Гонконг, боевик, драма, биография, история, HDRip] MVO [RecentFilms]

Ответить на тему
 

jahongir.tps.uz ®

Стаж: 3 года 9 месяцев

Сообщений: 8

Симпатии: 5

- -Ип Ман 3 / Yip Man 3 -
Страна: Китай/Гонконг, Pegasus Motion Pictures (Hong Kong) Ltd., My Pictures Studio, Dreams Salon Entertainm
Жанр: боевик, драма, биография, история
Год выпуска: 2015
Продолжительность: 1:44:41-Перевод: Любительский многоголосый [RecentFilms]
Cубтитры: нет-Режиссер: Уилсон Ип / Wilson Yip-В ролях: Донни Ен, Линн Хун, Цзинь Чжан, Майк Тайсон, Патрик Там, Карина ЭнДжи, Kai-Chung Cheung, Кент Чэн, Ка-Ян Леунг, Квок-Куен Чан-Описание: Полубиографический фильм о жизни Ип Мана — первого человека, начавшего открыто преподавать кунг-фу (стиль Вин-Чунь).-Качество видео: HDRip
Формат видео: AVI
Видео: XviD, 1727 Кбит/с, 720x304
Аудио: AC3, 2 ch, 128 Кбит/с-

MediaInfo

General
Format : AVI
Format/Info : Audio Video Interleave
File size : 1.36 GiB
Duration : 1h 44mn
Overall bit rate : 1 865 Kbps
Writing application : VirtualDubMod 1.5.10.3 | www.virtualdub-fr.org || (build 2550/release)
Writing library : VirtualDubMod build 2550/release
Video
ID : 0
Format : MPEG-4 Visual
Format profile : Advanced [email protected]
Format settings, BVOP : 1
Format settings, QPel : No
Format settings, GMC : No warppoints
Format settings, Matrix : Default (MPEG)
Codec ID : XVID
Codec ID/Hint : XviD
Duration : 1h 44mn
Bit rate : 1 727 Kbps
Width : 720 pixels
Height : 304 pixels
Display aspect ratio : 2.35:1
Frame rate : 24.000 fps
Color space : YUV
Chroma subsampling : 4:2:0
Bit depth : 8 bits
Scan type : Progressive
Compression mode : Lossy
Bits/(Pixel*Frame) : 0.329
Stream size : 1.26 GiB (93%)
Writing library : XviD 73
Audio
ID : 1
Format : AC-3
Format/Info : Audio Coding 3
Mode extension : CM (complete main)
Format settings, Endianness : Big
Codec ID : 2000
Duration : 1h 44mn
Bit rate mode : Constant
Bit rate : 128 Kbps
Channel(s) : 2 channels
Channel positions : Front: L R
Sampling rate : 48.0 KHz
Bit depth : 16 bits
Compression mode : Lossy
Stream size : 95.8 MiB (7%)
Alignment : Split accross interleaves
Interleave, duration : 42 ms (1.00 video frame)
Interleave, preload duration : 500 ms

Скриншоты



Последний раз редактировалось: jahongir.tps.uz (2016-03-15 20:01), всего редактировалось 2 раз(а)

Создавать темы 14-Мар-2016 14:33

[Профиль]  [ЛС] 

kiparobot

Стаж: 6 лет 6 месяцев

Сообщений: 37

Симпатии: 3

Перевод: Профессиональный (дублированный) ,Ip.Man.3.2015.HDRip.All Tor.Me.avi fp

Информация от Страх


Вы автор релиза?

Создавать темы 14-Мар-2016 15:14

[Профиль]  [ЛС] 

amishta

Стаж: 5 лет 2 месяца

Сообщений: 41

терь скорости добавьте)))) жду с нетерпением! спс автору

Создавать темы 14-Мар-2016 18:43

[Профиль]  [ЛС] 

Страх

Стаж: 3 года 10 месяцев

Сообщений: 1131

Симпатии: 448

залью в Bdrip е. через пару часов.

Создавать темы 14-Мар-2016 19:00

[Профиль]  [ЛС] 

Qodir

Стаж: 2 года 3 месяца

Сообщений: 3

dayte razzdachu

Создавать темы 14-Мар-2016 21:13

[Профиль]  [ЛС] 

farid0888

Стаж: 5 лет 3 месяца

Сообщений: 232

Симпатии: 49

jahongir.tps.uz, Название файла поменяй.

Создавать темы 15-Мар-2016 01:15

[Профиль]  [ЛС] 

jahongir.tps.uz ®

Стаж: 3 года 9 месяцев

Сообщений: 8

Симпатии: 5

ok

Создавать темы 15-Мар-2016 09:37

[Профиль]  [ЛС] 

Machine

Стаж: 5 лет

Сообщений: 209

Симпатии: 68

Страх, Еще и Дублированный сам походу дописал ag

Создавать темы 15-Мар-2016 11:04

[Профиль]  [ЛС] 

exciter

Стаж: 7 лет 2 месяца

Сообщений: 158

Симпатии: 2

Спасибо

Создавать темы 15-Мар-2016 19:45

[Профиль]  [ЛС] 

ruhal

Стаж: 2 года 4 месяца

Сообщений: 1182

Симпатии: 1836

подправил оформление, фильм же отличный

Создавать темы 15-Мар-2016 20:02

[Профиль]  [ЛС] 

jahongir.tps.uz ®

Стаж: 3 года 9 месяцев

Сообщений: 8

Симпатии: 5

да очен отличный

Создавать темы 15-Мар-2016 23:07

[Профиль]  [ЛС] 

johnblack96

Стаж: 1 год 8 месяцев

Сообщений: 5

Спасибо, фильм отличный.

Создавать темы 15-Мар-2016 23:30

[Профиль]  [ЛС] 

Sirojiddin0989

Стаж: 2 года 2 месяца

Сообщений: 1

RAXMAT

Создавать темы 17-Мар-2016 22:58

[Профиль]  [ЛС] 
Показать сообщения:    
Ответить на тему

Текущее время: 20-Авг 20:12

Часовой пояс: UTC + 5



Вы не можете начинать темы
Вы не можете отвечать на сообщения
Вы не можете редактировать свои сообщения
Вы не можете удалять свои сообщения
Вы не можете голосовать в опросах
Вы не можете прикреплять файлы к сообщениям
Вы не можете скачивать файлы