Кошмар перед рождеством / Nightmare Before Christmas (Генри Селек / Henry Selick) [1993, США, мультфильм, мюзикл, фэнтези, семейный, DVDRip] (Dub) (Original Eng)

Ответить на тему
 

эми ®

Стаж: 2 года

Сообщений: 8

Симпатии: 2

Кошмар перед рождеством / Nightmare Before Christmas
Страна: США
Жанр: мультфильм, мюзикл, фэнтези, семейный
Год выпуска: 1993
Продолжительность: 01:16:39
Перевод: Профессиональный (дублированный)
Cубтитры: нет
Оригинальная аудиодорожка: английский
Режиссер: Генри Селек / Henry Selick
В ролях:
Дэнни Эльфман
Крис Сарандон
Кэтрин О'Хара
Уильям Хикки
Описание: Мультфильм рассказывает о царстве Хэллоуин, царстве страхов и кошмаров, где живут мертвецы, уродцы, чудовища во главе с царем ужасов Джеком Скеллингтоном. Под рождество Джек случайно попадает в город Рождества, где узнает, что есть где-то радость, добро и веселье.
Ему страшно захотелось испытать это чувство — дарить людям счастье — и он похитил Санта Клауса и занял его место. Результаты были, правда, самые плачевные, да и подарки его никому, мягко говоря, не понравились. Но он все понял и исправил свою ошибку...
Качество видео: DVDRip
Формат видео: AVI
Видео: Xvid 720x432 23.976fps 2131kbps
Аудио: Dolby AC3 48000Hz 6ch 320kbps
Аудио 2: Dolby AC3 48000Hz 6ch 256kbps

MediaInfo

General
Complete name : Nightmare Before Christmas (1993 LQ rus-eng).avi
Format : AVI
Format/Info : Audio Video Interleave
File size : 1.46 GiB
Duration : 1h 16mn
Overall bit rate : 2 721 Kbps
Movie name : Кошмар перед Рождеством / Nightmare Before Christmas, The (1993) BDRip
Writing application : VirtualDubMod 1.5.10.2 (build 2540/release)
Writing library : VirtualDubMod build 2540/release
Video
ID : 0
Format : MPEG-4 Visual
Format profile : Advanced [email protected]
Format settings, BVOP : Yes
Format settings, QPel : No
Format settings, GMC : No warppoints
Format settings, Matrix : Default (MPEG)
Codec ID : XVID
Codec ID/Hint : XviD
Duration : 1h 16mn
Bit rate : 2 131 Kbps
Width : 720 pixels
Height : 432 pixels
Display aspect ratio : 1.667
Frame rate : 23.976 fps
Color space : YUV
Chroma subsampling : 4:2:0
Bit depth : 8 bits
Scan type : Progressive
Compression mode : Lossy
Bits/(Pixel*Frame) : 0.286
Stream size : 1.14 GiB (78%)
Writing library : XviD 1.1.2 (UTC 2006-11-01)
Audio #1
ID : 1
Format : AC-3
Format/Info : Audio Coding 3
Mode extension : CM (complete main)
Format settings, Endianness : Big
Codec ID : 2000
Duration : 1h 16mn
Bit rate mode : Constant
Bit rate : 320 Kbps
Channel(s) : 6 channels
Channel positions : Front: L C R, Side: L R, LFE
Sampling rate : 48.0 KHz
Bit depth : 16 bits
Compression mode : Lossy
Stream size : 175 MiB (12%)
Alignment : Split accross interleaves
Interleave, duration : 42 ms (1.00 video frame)
Interleave, preload duration : 500 ms
Audio #2
ID : 2
Format : AC-3
Format/Info : Audio Coding 3
Mode extension : CM (complete main)
Format settings, Endianness : Big
Codec ID : 2000
Duration : 1h 16mn
Bit rate mode : Constant
Bit rate : 256 Kbps
Channel(s) : 6 channels
Channel positions : Front: L C R, Side: L R, LFE
Sampling rate : 48.0 KHz
Bit depth : 16 bits
Compression mode : Lossy
Stream size : 140 MiB (9%)
Alignment : Split accross interleaves
Interleave, duration : 42 ms (1.00 video frame)
Interleave, preload duration : 500 ms

Скриншот c названием фильма

Скриншоты






Последний раз редактировалось: эми (2016-03-14 21:38), всего редактировалось 2 раз(а)

Создавать темы 14-Мар-2016 14:54

[Профиль]  [ЛС] 

ruhal

Стаж: 2 года 8 месяцев

Сообщений: 1181

Симпатии: 1836

Залейте сам мультфильм, а не картинку, а то закрою( Думаю Вы просто ошиблись). Даю 24 часа на исправление.

Создавать темы 14-Мар-2016 19:55

[Профиль]  [ЛС] 

эми ®

Стаж: 2 года

Сообщений: 8

Симпатии: 2

чисто механически видать получилось

Создавать темы 14-Мар-2016 21:41

[Профиль]  [ЛС] 
Показать сообщения:    
Ответить на тему

Текущее время: 13-Дек 12:09

Часовой пояс: UTC + 5



Вы не можете начинать темы
Вы не можете отвечать на сообщения
Вы не можете редактировать свои сообщения
Вы не можете удалять свои сообщения
Вы не можете голосовать в опросах
Вы не можете прикреплять файлы к сообщениям
Вы не можете скачивать файлы