Сердцеед / L'arnacoeur (Паскаль Шомель) [2010, Франция, Монако, мелодрама, комедия, HDRip-AVC] (Dub) (Sub Eng, Rus + Original Fre)

Ответить на тему
 

Ep0xa ®

Стаж: 5 лет 5 месяцев

Сообщений: 22

Симпатии: 7

Сердцеед / L'arnacoeur
Год выпуска: 2010
Страна: Франция, Монако
Жанр: мелодрама, комедия
Продолжительность: 01:44:50
Перевод: Профессиональный (полное дублирование)
Субтитры: Русский, Французский, Английский
Слоган: «Перед ним пока не устояла ни одна женщина...»--Режиссер: Паскаль Шомель-В ролях: Ромен Дюрис, Ванесса Паради, Жюли Ферье, Франсуа Дамиенс, Элена Ногуэрра, Эндрю Линкольн, Жак Франц, Амандин Девасме, Жан-Ив Лафесс, Жан-Мари Пэрис и т.д.-Роли дублировали: Илья Бледный, Полина Щербакова, Елена Соловьева, Татьяна Шитова, Василий Дахненко и т.д.--Описание: Прожженный дамский угодник Алекс затевает на пару с сестрой занятный бизнес: он разбивает нежелательные для клиентов романтические союзы. Дело идет как по маслу, пока Алексу не попадается по-настоящему сложный заказ — ему поручено разлучить поистине идеальную пару.--IMDb рейтинг: 6.70 (12 834)
КиноПоиск рейтинг: 7.186 (12 806)--Качество: HDRip-AVC
Формат: MKV
Видео кодек: AVC
Аудио кодек: AC-3
Видео: AVC, 1220x516, 23.976 fps, 3 079 Kbps
Аудио #1: AC-3, 48000 Hz, 448 Kbps, 6 ch. | Русский
Аудио #2: AC-3, 48000 Hz, 448 Kbps, 6 ch. | Французский (оригинал)--Внимание:
В связи с тем что у некоторых была проблема с буферизацией (некоторые говорили даже что фильм сам по себе не докаченный, хотя у меня все было отлично) - перезалил фильм даже в более лучшем качестве, с оригинальной аудио-дорожкой и субтитрами на нескольких языках.--Жмем + + + и Спасибо!! bq

Скриншоты








MediaInfo

General
Unique ID : 222614944832947652075212291991954787461 (0xA77A142E58A81A18BF90C3AABDEC0C85)
Complete name : D:\Cinema\Serdceed.mkv
Format : Matroska
Format version : Version 2
File size : 2.91 GiB
Duration : 1h 44mn
Overall bit rate : 3 977 Kbps
Movie name : Сердцеед / L'arnacoeur / Heartbreaker
Encoded date : UTC 2012-04-28 21:09:32
Writing application : mkvmerge v5.5.0 ('Healer') built on Apr 6 2012 21:43:24
Writing library : libebml v1.2.3 + libmatroska v1.3.0
Attachements : Heartbreaker_front.jpg
Video
ID : 1
Format : AVC
Format/Info : Advanced Video Codec
Format profile : [email protected]
Format settings, CABAC : Yes
Format settings, ReFrames : 11 frames
Codec ID : V_MPEG4/ISO/AVC
Duration : 1h 44mn
Bit rate : 3 079 Kbps
Width : 1 220 pixels
Height : 516 pixels
Display aspect ratio : 2.35:1
Frame rate mode : Constant
Frame rate : 23.976 fps
Color space : YUV
Chroma subsampling : 4:2:0
Bit depth : 8 bits
Scan type : Progressive
Bits/(Pixel*Frame) : 0.204
Stream size : 2.20 GiB (75%)
Title : L'arnacoeur
Writing library : x264 core 122 r2184 5c85e0a
Encoding settings : cabac=1 / ref=11 / deblock=1:-3:-2 / analyse=0x3:0x133 / me=umh / subme=10 / psy=1 / psy_rd=1.05:0.02 / mixed_ref=1 / me_range=32 / chroma_me=1 / trellis=2 / 8x8dct=1 / cqm=0 / deadzone=21,11 / fast_pskip=0 / chroma_qp_offset=-3 / threads=6 / sliced_threads=0 / nr=0 / decimate=0 / interlaced=0 / bluray_compat=0 / constrained_intra=0 / bframes=9 / b_pyramid=2 / b_adapt=2 / b_bias=0 / direct=3 / weightb=1 / open_gop=0 / weightp=2 / keyint=250 / keyint_min=23 / scenecut=40 / intra_refresh=0 / rc_lookahead=60 / rc=2pass / mbtree=0 / bitrate=3079 / ratetol=1.0 / qcomp=0.70 / qpmin=0 / qpmax=69 / qpstep=4 / cplxblur=20.0 / qblur=0.5 / vbv_maxrate=50000 / vbv_bufsize=62500 / nal_hrd=none / ip_ratio=1.40 / pb_ratio=1.30 / aq=2:0.80 / zones=145630,150815,q=30
Language : French
Default : Yes
Forced : No
Matrix coefficients : BT.709
Audio #1
ID : 2
Format : AC-3
Format/Info : Audio Coding 3
Mode extension : CM (complete main)
Format settings, Endianness : Big
Codec ID : A_AC3
Duration : 1h 44mn
Bit rate mode : Constant
Bit rate : 448 Kbps
Channel(s) : 6 channels
Channel positions : Front: L C R, Side: L R, LFE
Sampling rate : 48.0 KHz
Bit depth : 16 bits
Compression mode : Lossy
Stream size : 336 MiB (11%)
Title : Dubljaz, 48 kHz, AC3, 3/2 (L,C,R,l,r) + LFE ch, ~ 448.00 kbps
Language : Russian
Default : Yes
Forced : No
Audio #2
ID : 3
Format : AC-3
Format/Info : Audio Coding 3
Mode extension : CM (complete main)
Format settings, Endianness : Big
Codec ID : A_AC3
Duration : 1h 44mn
Bit rate mode : Constant
Bit rate : 448 Kbps
Channel(s) : 6 channels
Channel positions : Front: L C R, Side: L R, LFE
Sampling rate : 48.0 KHz
Bit depth : 16 bits
Compression mode : Lossy
Stream size : 336 MiB (11%)
Title : Original, 48 kHz, AC3, 3/2 (L,C,R,l,r) + LFE ch, ~ 448.00 kbps
Language : French
Default : No
Forced : No
Text #1
ID : 4
Format : UTF-8
Codec ID : S_TEXT/UTF8
Codec ID/Info : UTF-8 Plain Text
Title : по дубляжу, тайпсеттинг: barm
Language : Russian
Default : No
Forced : No
Text #2
ID : 5
Format : UTF-8
Codec ID : S_TEXT/UTF8
Codec ID/Info : UTF-8 Plain Text
Language : French
Default : No
Forced : No
Text #3
ID : 6
Format : UTF-8
Codec ID : S_TEXT/UTF8
Codec ID/Info : UTF-8 Plain Text
Language : English
Default : No
Forced : No
Menu
00:00:00.000 : en:01. Going to the Dunes
00:04:00.782 : en:02. Diamond Doves
00:09:23.062 : en:03. Heartbreaker
00:14:49.889 : en:04. Research
00:20:16.590 : en:05. Artists and Bodyguards
00:28:00.304 : en:06. Finding Ms. Van Der Beck
00:35:21.119 : en:07. Code Word: Handbag / An Electrical Problem
00:44:17.071 : en:08. A Childhood Friend
00:50:56.762 : en:09. A Night At the Opera
00:57:53.261 : en:10. The Brit Showed Up
01:05:58.788 : en:11. Waking the Volcano
01:12:39.188 : en:12. Dirty Dancing
01:18:07.349 : en:13. Last Night
01:23:53.987 : en:14. Screwing Up
01:28:59.501 : en:15. Missions' Over
01:35:45.239 : en:16. Doubts Are Normal / End Credits

Создавать темы 14-Мар-2016 16:43

[Профиль]  [ЛС] 

Топик был перенесен из форума Фильмы за 2010-2013 в форум HD-AVC
ruhal

Создавать темы 14-Мар-2016 19:57

 

Ep0xa ®

Стаж: 5 лет 5 месяцев

Сообщений: 22

Симпатии: 7

Доброго времени суток.
Ребята, убедительная просьба не уходить с раздачи!
С уважением.

Создавать темы 16-Мар-2016 14:17

[Профиль]  [ЛС] 

Ep0xa ®

Стаж: 5 лет 5 месяцев

Сообщений: 22

Симпатии: 7

Ребята, попробуйте добавить в свойствах скачиваемого торрента новый трекер: http://re-tracker.uz/announce
Может после этого начнется раздача все-таки.

Создавать темы 25-Мар-2016 19:38

[Профиль]  [ЛС] 

Ep0xa ®

Стаж: 5 лет 5 месяцев

Сообщений: 22

Симпатии: 7

Отличным решением отсутствия раздачи или маленькой скорости будет установка Teredo (IPv6).

Создавать темы 03-Апр-2016 18:56

[Профиль]  [ЛС] 
Показать сообщения:    
Ответить на тему

Текущее время: 24-Авг 02:31

Часовой пояс: UTC + 5



Вы не можете начинать темы
Вы не можете отвечать на сообщения
Вы не можете редактировать свои сообщения
Вы не можете удалять свои сообщения
Вы не можете голосовать в опросах
Вы не можете прикреплять файлы к сообщениям
Вы не можете скачивать файлы