Чемпионат Испании, 29-й тур. Лас Палмас - Реал Мадрид Полный матч [Футбол, TVRip] [2016]

Ответить на тему
 

Eli4455 ®

Стаж: 1 год 5 месяцев

Сообщений: 3

Симпатии: 4

Чемпионат Испании, 29-й тур. Лас Палмас - Реал Мадрид Полный матч

Вид спорта: Футбол
Год выпуска: 2016
Продолжительность: 01:43:28
Описание:Чемпионат Испании, 29-й тур.13 марта. Лас-Пальмас. Стадион "Гран-Канария". Судья - Фернандес Борбалан (Альмерия).
Чуть не наказали игроки "Лас-Пальмаса" мадридский "Реал". Ох, и устроит же своим игрокам нагоняй Зинедин Зидан в раздевалке, да и по приезду в Мадрид. Отдельно нужно уделить внимание Криштиану Роналду, который провел очередную невыразительную игру в чемпионате. Может, не смог настроиться на сегодняшнюю встречу португалец, а может просто устал. В любом случае "Реал" набрал три очка, которые особой роли для него сегодня не сыграли, разве что не позволили "Атлетико" отдалиться от себя еще сильнее. Футболисты же "Лас-Пальмаса" в очередной игре продемонстрировали просто запредельный настрой и едва не зацепились за очко. Если островитяне будут играть так до конца чемпионата, то ни в какую Сегунду они не вылетят, ведь клуб, который имеет цель и медленно, но верно к ней идет, всегда добивается желаемого... На этом наш вечерний эфир подошел к концу. Для вас работал Козырев Вячеслав! До встречи на матчах Лиги Чемпионов! И помните, что футбол - блюдо, которое подается только горячим!
Качество видео: TVRip
Формат видео: TS
Видео: MPEG Video 720x576 (16:9) 25fps
Аудио: MPEG Audio 48000Hz mono 128kbps

MediaInfo

ID : 16 (0x10)
Complete name : H:\La Palmas vs Real.mpg
Format : MPEG-TS
File size : 3.05 GiB
Duration : 1h 43mn
Overall bit rate mode : Variable
Overall bit rate : 4 215 Kbps
Video
ID : 408 (0x198)
Menu ID : 10 (0xA)
Format : MPEG Video
Format version : Version 2
Format profile : [email protected]
Format settings, BVOP : No
Format settings, Matrix : Custom
Format settings, GOP : M=3, N=24
Codec ID : 2
Duration : 1h 43mn
Bit rate : 3 878 Kbps
Maximum bit rate : 4 000 Kbps
Width : 720 pixels
Height : 576 pixels
Display aspect ratio : 16:9
Frame rate : 25.000 fps
Standard : PAL
Color space : YUV
Chroma subsampling : 4:2:0
Bit depth : 8 bits
Scan type : Interlaced
Scan order : Top Field First
Compression mode : Lossy
Bits/(Pixel*Frame) : 0.374
Time code of first frame : 00:00:00:00
Time code source : Group of pictures header
Stream size : 2.80 GiB (92%)
Source encoded stream size : (c) 1997-2004 Womble Multimedia, Inc. / MPEG Video Wizard (07/2004) / Oct 20 2004
Writing library : (c) 1997-2004 Womble Multimedia, Inc. / MPEG Video Wizard (07/2004) / Oct 20 2004
Audio
ID : 456 (0x1C8)
Menu ID : 10 (0xA)
Format : MPEG Audio
Format version : Version 1
Format profile : Layer 2
Codec ID : 3
Duration : 1h 43mn
Bit rate mode : Constant
Bit rate : 128 Kbps
Channel(s) : 1 channel
Sampling rate : 48.0 KHz
Compression mode : Lossy
Stream size : 94.7 MiB (3%)]]

Скриншоты







Последний раз редактировалось: Eli4455 (2016-03-14 22:21), всего редактировалось 6 раз(а)

Создавать темы 14-Мар-2016 16:51

[Профиль]  [ЛС] 

ruhal

Стаж: 2 года 4 месяца

Сообщений: 1182

Симпатии: 1836

Скриншоты оригинального размера 720x576 залейте

Создавать темы 14-Мар-2016 20:06

[Профиль]  [ЛС] 
Показать сообщения:    
Ответить на тему

Текущее время: 24-Авг 02:20

Часовой пояс: UTC + 5



Вы не можете начинать темы
Вы не можете отвечать на сообщения
Вы не можете редактировать свои сообщения
Вы не можете удалять свои сообщения
Вы не можете голосовать в опросах
Вы не можете прикреплять файлы к сообщениям
Вы не можете скачивать файлы