UFC 196: (McGregor vs. Diaz) (Holly Holm vs Miesha Tate) / UFC 196: (McGregor vs. Diaz) (UFC) [2016, США, ММА, DVDRip-AVC] [Автор рипа/записи: Fight-BB] (Fight-BB) (Sub Eng + Original Eng)

Ответить на тему
 

virus-leo.uz ®

Стаж: 1 год 10 месяцев

Сообщений: 14

Симпатии: 7

UFC 196: (McGregor vs. Diaz) (Holly Holm vs Miesha Tate) / UFC 196: (McGregor vs. Diaz) / Автор рипа/записи: Fight-BB
Страна: США
Жанр: ММА
Год выпуска: 2016
Продолжительность: 03:08:31
Перевод: Отсутствует Доп. инфо о переводе Fight-BB
Cубтитры: английские
Оригинальная аудиодорожка: английский
Режиссер: UFC
В ролях: McGregor vs Diaz
Описание: Предварительные бои турнира "UFC 196: McGregor vs. Diaz", прошедшего 5 марта 2016 года в "MGM Grand Garden Arena", Лас-Вегас, штат Невада, США
Доп. информация: Автор рипа/записи: Fight-BB
Качество видео: DVDRip-AVC
Формат видео: MP4
Видео: 640x360 (16:9), 25,000 fps, H264, ~4300 kbps avg, ~0.155 bit/pixel
Аудио: 44.1 kHz, AAC, 2/0 (L,R), ~126.00 kbps aac

MediaInfo

Общее
Полное имя : D:\BauvzVPm_m.mp4
Формат : MPEG-4
Профиль формата : Base Media
Идентификатор кодека : isom (isom/iso2/avc1/mp41)
Размер файла : 945 Мбайт
Продолжительность : 3 ч. 8 м.
Общий поток : 699 Кбит/сек
Программа кодирования : Lavf56.26.101
Видео
Идентификатор : 1
Формат : AVC
Формат/Информация : Advanced Video Codec
Профиль формата : [email protected]
Параметр CABAC формата : Да
Параметр ReFrames формата : 5 кадров
Идентификатор кодека : avc1
Идентификатор кодека/Информация : Advanced Video Coding
Продолжительность : 3 ч. 8 м.
Битрейт : 600 Кбит/сек
Ширина : 640 пикселей
Высота : 360 пикселей
Соотношение сторон : 16:9
Режим частоты кадров : Постоянный
Частота кадров : 25,000 кадров/сек
Цветовое пространство : YUV
Субдискретизация насыщенности : 4:2:0
Битовая глубина : 8 бит
Тип развёртки : Прогрессивная
Бит/(Пиксели*Кадры) : 0.104
Размер потока : 810 Мбайт (86%)
Библиотека кодирования : x264 core 146 r2 121396c
Настройки программы : cabac=1 / ref=5 / deblock=1:0:0 / analyse=0x3:0x113 / me=umh / subme=8 / psy=1 / psy_rd=1.00:0.00 / mixed_ref=1 / me_range=16 / chroma_me=1 / trellis=1 / 8x8dct=1 / cqm=0 / deadzone=21,11 / fast_pskip=1 / chroma_qp_offset=-2 / threads=2 / lookahead_threads=1 / sliced_threads=0 / nr=0 / decimate=1 / interlaced=0 / bluray_compat=0 / constrained_intra=0 / bframes=3 / b_pyramid=2 / b_adapt=2 / b_bias=0 / direct=3 / weightb=1 / open_gop=0 / weightp=2 / keyint=25 / keyint_min=2 / scenecut=40 / intra_refresh=0 / rc_lookahead=25 / rc=abr / mbtree=1 / bitrate=600 / ratetol=1.0 / qcomp=0.60 / qpmin=0 / qpmax=69 / qpstep=4 / ip_ratio=1.40 / aq=1:1.00
Аудио
Идентификатор ф : 2
Формат : AAC
Формат/Информация : Advanced Audio Codec
Профиль формата : LC
Идентификатор кодека : 40
Продолжительность : 3 ч. 8 м.
Вид битрейта : Постоянный
Битрейт : 93,0 Кбит/сек
Каналы : 2 канала
Расположение каналов : Front: L R
Частота : 44,1 КГц
Частота кадров : 43,066 кадра/сек (1024 spf)
Метод сжатия : С потерями
Размер потока : 126 Мбайт (13%)
Default : Да
Alternate group : 1

Скриншот c названием фильма

http://img.tas-ix.net/image/E8P

Скриншоты






Последний раз редактировалось: virus-leo.uz (2016-03-14 20:32), всего редактировалось 1 раз

Создавать темы 14-Мар-2016 19:56

[Профиль]  [ЛС] 

ruhal

Стаж: 2 года 7 месяцев

Сообщений: 1181

Симпатии: 1836

Скриншоты оригинального размера 640x360 залейте

Создавать темы 14-Мар-2016 19:58

[Профиль]  [ЛС] 

mp1988

Стаж: 6 лет 9 месяцев

Сообщений: 607

Симпатии: 971

смотрел, понравились 2 последних чемпионских боя

Создавать темы 14-Мар-2016 20:35

[Профиль]  [ЛС] 

virus-leo.uz ®

Стаж: 1 год 10 месяцев

Сообщений: 14

Симпатии: 7

спасиба што смотрел в апреле чемпионский бой Cormier vs jones

Создавать темы 14-Мар-2016 21:03

[Профиль]  [ЛС] 

nigga22480

Стаж: 7 лет 6 месяцев

Сообщений: 211

Симпатии: 13

день сенсации, советую смотреть кто не смотрел.

Создавать темы 15-Мар-2016 15:00

[Профиль]  [ЛС] 
Показать сообщения:    
Ответить на тему

Текущее время: 19-Ноя 04:31

Часовой пояс: UTC + 5



Вы не можете начинать темы
Вы не можете отвечать на сообщения
Вы не можете редактировать свои сообщения
Вы не можете удалять свои сообщения
Вы не можете голосовать в опросах
Вы не можете прикреплять файлы к сообщениям
Вы не можете скачивать файлы