Морские дьяволы. Смерч / Сезон: 3 / Серии: 1-32 из 32 (Александр Картохин, Владимир Койфман, Максим Демченко) [2016, Боевик, криминал, SATRip]

Ответить на тему
 

Sunnat1999 ®

Стаж: 4 года 8 месяцев

Сообщений: 756

Симпатии: 416

Морские дьяволы. СмерчСезон: 3 Серии: 1-32 из 32-- Год выпуска: 2016
Производство: Россия
Жанр: Боевик, криминал
Продолжительность: ~ 00:44:00
Субтитры: нет-Режиссёр: Александр Картохин, Владимир Койфман, Максим Демченко-В ролях: Олег Чернов, Дарья Юргенс (Лесникова), Иван Паршин, Антон Гуляев, Владимир Ярош, Дарья Циберкина, Снежана Прудько, Анатолий Друзенко, Игорь Григорьев (IV), Сергей Апрельский, Олег Кассин, Виталий Соболев, Алексей Тихонов, Эрнест Тимерханов, Михаил Асанкин, Артем Цыпин-Описание: В целях обнаружения и предотвращения случаев возникновения угрозы государственной безопасности, при президенте и правительстве РФ создается контртеррористический центр, в его подчинении находится группа специального назначения "Смерч". Группа состоит из семи человек, они подготовлены к действиям в сложнейших ситуациях, в любой среде, в условиях дефицита времени и мощного противодействия. Практически все они (Батя, Багира, Кот, Бизон, Физик, Пригов) — бывшие тайфуновцы из «Морских дьяволов», перешедшие теперь на работу в КТЦ. Все, за исключением Муры, пришедшей работать уже непосредственно в "Смерч". «Объекты» работы группы, что называется, три стихии – вода, небо и земля (включая горы). Эта группа не сильно скована законами, главное – моральные принципы при подчинению высшему командованию. «Смерч», обладающей всеми новинками вооружений и спецтехники, включает в себя бойцов спецподразделений, ученых, программистов, психологов. Все сотрудники МВД, ФСБ и Министерства Обороны обязаны подчиняться указаниям-Качество: SATRip
Формат: AVI
Видео кодек: XviD
Аудио кодек: MP3
Видео: XviD, ~ 1800 Кбит/с, 720x400
Аудио: MP3, 2 ch, 128 Кбит/с
-ВНИМАНИЕ! РАЗДАЧА ВЕДЁТСЯ ПУТЁМ ДОБАВЛЕНИЯ НОВЫХ СЕРИЙ!
ДОБАВЛЕНЫ 27-32 СЕРИИ! ПОЖАЛУЙСТА ОБНОВИТЕ ТОРРЕНТ

Как обновить торрент

Когда раздача ведётся путём добавления новых серий, при каждом добавлении создётся новый торрент. Чтобы начать докачку новой серии, пользователям необходимо сделать следующее:
(1) остановить скачивание,
(2) удалить старый торрент у себя из клиента (старые серии удалять не надо),
(3) скачать новый торрент и запустить его у себя в клиенте вместо старого, при этом указать клиенту путь в старую папку, куда и должно происходить скачивание новых серий.
Ваш клиент при этом должен произвести хеширование (проверку) старой папки (если не производит сам - помогите ему сделать это), и будет докачивать только те серии, которых у вас ещё нет. Старые серии при этом не удаляются, а продолжают раздаваться!
Eсли вы уже удалили старые серии, то предотвратить повторную закачку старых серий можно, отжав галочку в соответсвующих местах при запуске нового торрента. По возможности, желательно не удалять старые серии как можно дольше, чтобы релизёр не столько продолжал раздавать старые серии, а смог сконцентрироваться на новых.

MI

Общее
Полное имя : \Morskie.diavoly.3\Morskie.diavoly.3.01.avi
Формат : AVI
Формат/Информация : Audio Video Interleave
Размер файла : 600 Мбайт
Продолжительность : 43 м.
Общий поток : 1932 Кбит/сек
Программа кодирования : VirtualDubMod 1.5.10.3 | www.virtualdub-fr.org || (build 2550/release)
Библиотека кодирования : VirtualDub build 29808/release
Видео
Идентификатор : 0
Формат : MPEG-4 Visual
Профиль формата : Advanced [email protected]
Параметр BVOP формата : 2
Параметр QPel формата : Нет
Параметр GMC формата : Без точки перехода
Параметр матрицы формата : Default (H.263)
Идентификатор кодека : XVID
Идентификатор кодека/Подсказка : XviD
Продолжительность : 43 м.
Битрейт : 1795 Кбит/сек
Ширина : 720 пикселей
Высота : 400 пикселей
Соотношение сторон : 16:9
Частота кадров : 25,000 кадров/сек
Цветовое пространство : YUV
Субдискретизация насыщенности : 4:2:0
Битовая глубина : 8 бит
Тип развёртки : Прогрессивная
Метод сжатия : С потерями
Бит/(Пиксели*Кадры) : 0.249
Размер потока : 557 Мбайт (93%)
Библиотека кодирования : XviD 1.2.1 (UTC 2008-12-04)
Аудио
Идентификатор : 1
Формат : AC-3
Формат/Информация : Audio Coding 3
Расширение режима : CM (complete main)
Параметр Endianness формата : Big
Идентификатор кодека : 2000
Продолжительность : 43 м.
Вид битрейта : Постоянный
Битрейт : 128 Кбит/сек
Каналы : 2 канала
Расположение каналов : Front: L R
Частота : 48,0 КГц
Битовая глубина : 16 бит
Метод сжатия : С потерями
Размер потока : 39,7 Мбайт (7%)
Выравнивание : Разделение по промежуткам
Продолжительность промежутка : 40 мс. (1,00 видеокадр)
Время предзагрузки промежутка : 500 мс.
Скриншоты:


Последний раз редактировалось: Sunnat1999 (2016-04-05 18:46), всего редактировалось 7 раз(а)

Создавать темы 14-Мар-2016 21:13

[Профиль]  [ЛС] 

Sunnat1999 ®

Стаж: 4 года 8 месяцев

Сообщений: 756

Симпатии: 416

ДОБАВЛЕНА 2 СЕРИЯ! ПОЖАЛУЙСТА ОБНОВИТЕ ТОРРЕНТ

Создавать темы 14-Мар-2016 21:59

[Профиль]  [ЛС] 

Sunnat1999 ®

Стаж: 4 года 8 месяцев

Сообщений: 756

Симпатии: 416

ДОБАВЛЕНЫ 3-4 СЕРИИ! ПОЖАЛУЙСТА ОБНОВИТЕ ТОРРЕНТ

Создавать темы 15-Мар-2016 17:53

[Профиль]  [ЛС] 

Sunnat1999 ®

Стаж: 4 года 8 месяцев

Сообщений: 756

Симпатии: 416

ДОБАВЛЕНЫ 5-6 СЕРИИ! ПОЖАЛУЙСТА ОБНОВИТЕ ТОРРЕНТ

Создавать темы 16-Мар-2016 23:19

[Профиль]  [ЛС] 

Sunnat1999 ®

Стаж: 4 года 8 месяцев

Сообщений: 756

Симпатии: 416

ДОБАВЛЕНЫ 7-18 СЕРИИ! ПОЖАЛУЙСТА ОБНОВИТЕ ТОРРЕНТ

Создавать темы 24-Мар-2016 21:02

[Профиль]  [ЛС] 

Sunnat1999 ®

Стаж: 4 года 8 месяцев

Сообщений: 756

Симпатии: 416

ДОБАВЛЕНЫ 19-22 СЕРИИ! ПОЖАЛУЙСТА ОБНОВИТЕ ТОРРЕНТ

Создавать темы 26-Мар-2016 06:10

[Профиль]  [ЛС] 

Sunnat1999 ®

Стаж: 4 года 8 месяцев

Сообщений: 756

Симпатии: 416

ДОБАВЛЕНЫ 23-26 СЕРИИ! ПОЖАЛУЙСТА ОБНОВИТЕ ТОРРЕНТ

Создавать темы 30-Мар-2016 20:44

[Профиль]  [ЛС] 

Sunnat1999 ®

Стаж: 4 года 8 месяцев

Сообщений: 756

Симпатии: 416

ДОБАВЛЕНЫ 27-32 СЕРИИ! ПОЖАЛУЙСТА ОБНОВИТЕ ТОРРЕНТ

Создавать темы 05-Апр-2016 18:47

[Профиль]  [ЛС] 
Показать сообщения:    
Ответить на тему

Текущее время: 23-Окт 11:12

Часовой пояс: UTC + 5



Вы не можете начинать темы
Вы не можете отвечать на сообщения
Вы не можете редактировать свои сообщения
Вы не можете удалять свои сообщения
Вы не можете голосовать в опросах
Вы не можете прикреплять файлы к сообщениям
Вы не можете скачивать файлы