Ставка на любовь (Артем Михалков) [2015, комедия, мелодрама, WEB-DLRip ]

Ответить на тему
 

Mr.Blackstar ®

Стаж: 1 год 11 месяцев

Сообщений: 10

Симпатии: 3

Ставка на любовь
Жанр: комедия, мелодрама
Год выпуска: 2015
Продолжительность: 01.32.01
Режиссёр: Артем Михалков
В ролях: Ованнес Азоян, Андрей Бурковский, Катерина Шпица, Ян Цапник, Вадим Андреев, Ольга Тумайкина, Александр Ревва, Дмитрий Хрусталев, Ирина Чипиженко, Алла Михеева.
Описание: Костя и Давид – два друга детства. Несмотря на свою многолетнюю дружбу, они совершенно разные, как черное и белое. Костя – очень активный, он никогда не сидит на месте и, кажется, не спешит взрослеть, а еще он увлекается интеллектуальной карточной игрой – покер. Костя зачастую проводит свое время в казино, мечтает сорвать куш, но прежде, попасть на финал турнира по покеру, который состоится ни где-нибудь, а в Лас-Вегасе. Давид имеет совершенно другие взгляды на жизнь, предпочитает тихое, размеренное существование и семейное благополучие. Все свое свободное время он проводит с будущей супругой – любимой девушкой Анной. Но судьба решила проверить их дружбу, поменяв парней местами. Теперь Давид отправится на соревнование в Вегас, а непоседа Костя будет организовывать свадебное торжество. Скачивайте на нашем сайте замечательную комедию «Ставка на любовь».
Качество видео: WEB-DLRip
Формат видео: AVI
Видео: Xvid 720x304 24fps 1730kbps
Аудио: Dolby AC3 48000Hz 6ch 384kbps

MediaInfo

General
Complete name : D:\Down\фильм\Stavka.Ha.Lu6ov.2016.O.WEB-DLRip.avi
Format : AVI
Format/Info : Audio Video Interleave
File size : 1.37 GiB
Duration : 1h 32mn
Overall bit rate : 2 124 Kbps
Writing application : VirtualDubMod 1.5.10.3 | www.virtualdub-fr.org || (build 2550/release)
Writing library : VirtualDubMod build 2550/release
Video
ID : 0
Format : MPEG-4 Visual
Format profile : Advanced [email protected]
Format settings, BVOP : Yes
Format settings, QPel : No
Format settings, GMC : No warppoints
Format settings, Matrix : Default (MPEG)
Codec ID : XVID
Codec ID/Hint : XviD
Duration : 1h 32mn
Bit rate : 1 731 Kbps
Width : 720 pixels
Height : 304 pixels
Display aspect ratio : 2.35:1
Frame rate : 24.000 fps
Color space : YUV
Chroma subsampling : 4:2:0
Bit depth : 8 bits
Scan type : Progressive
Compression mode : Lossy
Bits/(Pixel*Frame) : 0.329
Stream size : 1.11 GiB (81%)
Writing library : XviD 1.2.1 (UTC 2008-12-04)
Audio
ID : 1
Format : AC-3
Format/Info : Audio Coding 3
Mode extension : CM (complete main)
Format settings, Endianness : Big
Codec ID : 2000
Duration : 1h 32mn
Bit rate mode : Constant
Bit rate : 384 Kbps
Channel(s) : 6 channels
Channel positions : Front: L C R, Side: L R, LFE
Sampling rate : 48.0 KHz
Bit depth : 16 bits
Compression mode : Lossy
Stream size : 253 MiB (18%)
Alignment : Split accross interleaves
Interleave, duration : 42 ms (1.00 video frame)
Interleave, preload duration : 500 ms

Скриншот c названием фильма

Скриншоты







Последний раз редактировалось: Mr.Blackstar (2016-03-14 23:24), всего редактировалось 1 раз

Создавать темы 14-Мар-2016 23:19

[Профиль]  [ЛС] 
Показать сообщения:    
Ответить на тему

Текущее время: 21-Окт 06:28

Часовой пояс: UTC + 5



Вы не можете начинать темы
Вы не можете отвечать на сообщения
Вы не можете редактировать свои сообщения
Вы не можете удалять свои сообщения
Вы не можете голосовать в опросах
Вы не можете прикреплять файлы к сообщениям
Вы не можете скачивать файлы