Последний день / Le Dernier Jour (Родольфо Маркони / Rodolphe Marconi) [2004, Франция, драма, DVDRip] (VO) (Sub Rus + Original Fre)

Ответить на тему
 

ladysco ®

Стаж: 5 лет 5 месяцев

Сообщений: 40

Симпатии: 56

Последний день / Le Dernier Jour- Страна: Франция
Жанр: драма
Год выпуска: 2004
Продолжительность: 01:43:57
Перевод: Одноголосый, закадровый
Cубтитры: русские
Оригинальная аудиодорожка: французский
Режиссер: Родольфо Маркони / Rodolphe Marconi
В ролях: Николь Гарсиа, Гаспар Ульель, Мелани Лоран, Бруно Тодесчини, Элиссон Паради, Кристоф Малавуа, Тибальт Винкон
Описание: Главный герой — восемнадцатилетний студент Симон — приезжает в Ла-Рошель провести новогодние каникулы вместе с родителями. Попытка Симона разобраться в собственной сексуальности и в отношениях с близкими оборачивается трагедией.
Качество видео: DVDRip
Формат видео: AVI
Видео: XviD, 720x432, 29.970 fps, 1563 kbps avg, 0.168 bit/pixel
Аудио RUS: AC3, 48 kHz, 2 ch, 192.00 kbps avg
Аудио FRE: MP3, 48 kHz, 2 ch, 111.00 kbps avg
Формат субтитров: softsub (SRT)- 

MediaInfo

Format : AVI
Format/Info : Audio Video Interleave
File size : 1.37 GiB
Duration : 1h 43mn
Overall bit rate mode : Variable
Overall bit rate : 1 882 Kbps
Writing application : VirtualDubMod 1.5.4.1 (build 2178/release)
Writing library : VirtualDubMod build 2178/release
Video
ID : 0
Format : MPEG-4 Visual
Format profile : Advanced [email protected]
Format settings, BVOP : 1
Format settings, QPel : No
Format settings, GMC : No warppoints
Format settings, Matrix : Custom
Codec ID : XVID
Codec ID/Hint : XviD
Duration : 1h 43mn
Bit rate : 1 563 Kbps
Width : 720 pixels
Height : 432 pixels
Display aspect ratio : 1.667
Frame rate : 29.970 fps
Color space : YUV
Chroma subsampling : 4:2:0
Bit depth : 8 bits
Scan type : Progressive
Compression mode : Lossy
Bits/(Pixel*Frame) : 0.168
Stream size : 1.13 GiB (83%)
Writing library : XviD 1.2.1 (UTC 2008-12-04)
Audio #1
ID : 1
Format : AC-3
Format/Info : Audio Coding 3
Mode extension : CM (complete main)
Format settings, Endianness : Big
Codec ID : 2000
Duration : 1h 43mn
Bit rate mode : Constant
Bit rate : 192 Kbps
Channel(s) : 2 channels
Channel positions : Front: L R
Sampling rate : 48.0 KHz
Bit depth : 16 bits
Compression mode : Lossy
Stream size : 143 MiB (10%)
Alignment : Split accross interleaves
Interleave, duration : 96 ms (2.88 video frames)
Interleave, preload duratio : 96 ms
Audio #2
ID : 2
Format : MPEG Audio
Format version : Version 1
Format profile : Layer 3
Mode : Joint stereo
Mode extension : MS Stereo
Codec ID : 55
Codec ID/Hint : MP3
Duration : 1h 43mn
Bit rate mode : Variable
Bit rate : 111 Kbps
Nominal bit rate : 128 Kbps
Channel(s) : 2 channels
Sampling rate : 48.0 KHz
Compression mode : Lossy
Stream size : 82.9 MiB (6%)
Alignment : Aligned on interleaves
Interleave, duration : 24 ms (0.72 video frame)
Interleave, preload duratio : 497 ms
Writing library : LAME3.98r
Encoding settings : -m j -V 4 -q 2 -lowpass 17 --abr 128

Скриншоты



Последний раз редактировалось: ladysco (2016-03-15 17:55), всего редактировалось 2 раз(а)

Создавать темы 15-Мар-2016 15:36

[Профиль]  [ЛС] 
Показать сообщения:    
Ответить на тему

Текущее время: 11-Дек 22:03

Часовой пояс: UTC + 5



Вы не можете начинать темы
Вы не можете отвечать на сообщения
Вы не можете редактировать свои сообщения
Вы не можете удалять свои сообщения
Вы не можете голосовать в опросах
Вы не можете прикреплять файлы к сообщениям
Вы не можете скачивать файлы