Принцесса и лягушка / The Princess and the Frog (Рон Клементс, Джон Маскер / Ron Clements, John Musker) [2009, США, Фэнтези,мюзикл, семейный, мультфильм, DVDRip] (Dub)

Ответить на тему
 

эми ®

Стаж: 1 год 11 месяцев

Сообщений: 8

Симпатии: 2

-Принцесса и лягушка / The Princess and the Frog- Страна: США
Жанр: Фэнтези,мюзикл, семейный, мультфильм
Год выпуска: 2009
Продолжительность: 01:37:28
Перевод: Профессиональный (дублированный)
Cубтитры: нет
Режиссер: Рон Клементс, Джон Маскер / Ron Clements, John Musker
В ролях: Аника Нони Роуз
Бруно Камрос
Кит Дэвид
Мишель-Леон Вулей
Джим Каммингс
Дженифер Льюис
Джон Гудмен
Опра Уинфри
Дженифер Коуди
Терренс Ховард
Описание: Темнокожая официантка Тиана, живущая во Французском квартале Нового Орлеана, c детства любила готовить. Её отец, Джеймс, привил ей любовь к кулинарии, и они часто проводили время вместе на кухне. У девушки была мечта — открыть свой ресторан, и она трудилась днём и ночью, чтобы заработать достаточно. Её отец ушёл на войну и погиб, но Тиана продолжала прикладывать усилия, как её учил Джеймс.
На традиционный бал по случаю праздника Марди Гра приезжает Навин, молодой и весёлый принц Мальдонии. Он остаётся, как почётный гость, но связывается с колдуном вуду, доктором Фасилье, который превращает его в лягушку. Позднее Навин встречает Тиану, переодетую в маскарадный костюм принцессы, и просит её поцеловать его. Таким образом чары развеются, и он (то есть Навин) вернётся в прежнее состояние. Великодушная Тиана целует его, но так как она не настоящая принцесса, заклинание срабатывает наоборот, и Тиана сама превращается в лягушку. Вместе с Навином они сбегают от преследовавшей их собаки...
Качество видео: DVDRip
Формат видео: AVI
Видео: Xvid 720x400 23.976fps 1547kbps
Аудио: Dolby AC3 48000Hz 6ch 448kbps

MediaInfo

General
Complete name :princessa_i_lyagushka.avi
Format : AVI
Format/Info : Audio Video Interleave
File size : 1.37 GiB
Duration : 1h 37mn
Overall bit rate : 2 005 Kbps
Movie name : The Princess and the Frog (2009)
Director : VANO
Writing application : VirtualDubMod 1.5.4.1 (build 2178/release)
Copyright : http://uniongang.tv/
Video
ID : 0
Format : MPEG-4 Visual
Format profile : Advanced [email protected]
Format settings, BVOP : Yes
Format settings, QPel : No
Format settings, GMC : No warppoints
Format settings, Matrix : Custom
Codec ID : XVID
Codec ID/Hint : XviD
Duration : 1h 37mn
Bit rate : 1 548 Kbps
Width : 720 pixels
Height : 400 pixels
Display aspect ratio : 16:9
Frame rate : 23.976 fps
Color space : YUV
Chroma subsampling : 4:2:0
Bit depth : 8 bits
Scan type : Progressive
Compression mode : Lossy
Bits/(Pixel*Frame) : 0.224
Stream size : 1.05 GiB (77%)
Writing library : XviD 1.2.0.dev47 (UTC 2006-11-01)
Audio
ID : 1
Format : AC-3
Format/Info : Audio Coding 3
Mode extension : CM (complete main)
Format settings, Endianness : Big
Codec ID : 2000
Duration : 1h 37mn
Bit rate mode : Constant
Bit rate : 448 Kbps
Channel(s) : 6 channels
Channel positions : Front: L C R, Side: L R, LFE
Sampling rate : 48.0 KHz
Bit depth : 16 bits
Compression mode : Lossy
Stream size : 312 MiB (22%)
Alignment : Split accross interleaves
Interleave, duration : 42 ms (1.00 video frame)
Interleave, preload duration : 500 ms

Скриншот c названием фильма

Скриншоты




Последний раз редактировалось: эми (2016-03-15 20:45), всего редактировалось 1 раз

Создавать темы 15-Мар-2016 20:32

[Профиль]  [ЛС] 

Топик был перенесен из форума CamRip, DVDScr и т.п. в форум Мультфильмы
ruhal

Создавать темы 15-Мар-2016 20:45

 

Geimer

Стаж: 1 год 9 месяцев

Сообщений: 1

почему фильм перемешку с другими фильмами?????????

Создавать темы 02-Авг-2017 20:40

[Профиль]  [ЛС] 
Показать сообщения:    
Ответить на тему

Текущее время: 23-Ноя 06:33

Часовой пояс: UTC + 5



Вы не можете начинать темы
Вы не можете отвечать на сообщения
Вы не можете редактировать свои сообщения
Вы не можете удалять свои сообщения
Вы не можете голосовать в опросах
Вы не можете прикреплять файлы к сообщениям
Вы не можете скачивать файлы