Самолеты: Огонь и вода / Planes: Fire and Rescue 3D (Роберт Ганнавей / Robert Gannaway) [2014, США(DisneyToon Studios), Мультфильм, Комедия, Приключения, Семейный]

Ответить на тему
 

csant ®

Стаж: 1 год 11 месяцев

Сообщений: 2

Симпатии: 2

-Самолеты: Огонь и вода / Planes: Fire and Rescue 3D- Страна: США(DisneyToon Studios)
Жанр: Мультфильм, Комедия, Приключения, Семейный
Год выпуска: 2014
Продолжительность: 1:23:39-Перевод: Профессиональный дублированный(Лицензия)
Cубтитры: нет-Режиссер: Роберт Ганнавей / Robert Gannaway-В ролях: Dusty Crophopper - Дейн Кук(Константин Крюков), Blade Ranger - Эд Харрис(Сергей Чихачев), Lil' Dipper - Джули Боуэн, Maru - Кертис Армстронг, Cad - Джон Майкл Хиггинс(Даниил Эльдаров), Mayday - Хэл Холбрук, Windlifter - Уэс Стьюди, Chug - Брэд Гэррет, Dottie - Тери Хэтчер, Skipper - Стейси Кич, Leadbottom - Седрик «Развлекатель»-Описание: Самолетик Дасти, который стал теснее легендой воздушных гонок, скоро выяснит, что его движок сильно испорчен, и он никогда не может больше участвовать в высокоскоростных воздушных гонках. Дасти отыскивает себе новое занятие и знакомится с храброй пожарно-спасательной командой, которой управляет ветеран авиации вертолёт по имени Ренждер. Узнав, как тяжела и опасна работа пожарной авиации, Дасти поймёт, что такое истинный героизм и самоотдача, и сам захотит стать спасателем.-Доп. информация: Премьера: 15 июля 2014(21 августа 2014)
Релиз на Blu-Ray(DVD)( Россия): 18 ноября 2014
Бюджет: $50 000 000
Кассовые сборы: $139 347 787-Качество: BDRip(by Ash61)
Контейнер: MKV
Формат 3D: Half OverUnder / Вертикальная анаморфная стереопара
Порядок ракурсов: левый ракурс 1-ый
Видео кодек: x264
Аудио кодек: AC3
Видео: AVC / 23,976 fps / 1920х1080p / ~6.2 Mbps
Аудио:
#1 - Русский / AC3 / 48 KHz / 5.1 ch / 640 Kbps(Дубляж - BD)
#2 - Английский / AC3 / 48 KHz / 5.1 ch / 640 Kbps(Original - BD 3D)
Субтитры:
( SRT)
Вшитые(softsub):
#1 - Русские Форсированные(включены по умолчанию)
#2 - Русские Полные
#4 - English Full
#5 - English SDH
#5 - English SDH-Colored
Внешние(UTF-8):
#1 - Русские Форсированные(включены по умолчанию)

MediaInfo

Общее
Уникальный идентификатор : 191090117631171446192441328352205126215 (0x8FC29E32C5E682B58EEB12A1573EBA47)
Полное имя : E:\Torrent Films\My hand out\3D\Planes.FireAndRescue(2014)3D-halfOU(Ash61)\Planes.FireAndRescue(2014)3D-halfOU(Ash61).mkv
Формат : Matroska
Версия формата : Version 2
Размер файла : 4,48 Гбайт
Продолжительность : 1 ч. 23 м.
Общий поток : 7663 Кбит/сек
Название фильма : Самолеты: Огонь и вода / Planes: Fire and Rescue (2014) 3D
Дата кодирования : UTC 2014-11-18 15:07:40
Программа кодирования : mkvmerge v5.8.0 ('No Sleep / Pillow') built on Sep 2 2012 15:37:04
Библиотека кодирования : libebml v1.2.3 + libmatroska v1.3.0
Видео
Идентификатор : 1
Формат : AVC
Формат/Информация : Advanced Video Codec
Профиль формата : High@L4.1
Параметр CABAC формата : Да
Параметр ReFrames формата : 4 кадра
Идентификатор кодека : V_MPEG4/ISO/AVC
Продолжительность : 1 ч. 23 м.
Битрейт : 6230 Кбит/сек
Ширина : 1920 пикселей
Высота : 1080 пикселей
Соотношение сторон : 16:9
Режим частоты кадров : Постоянный
Частота кадров : 23,976 (24000/1001) кадра/сек
Цветовое пространство : YUV
Субдискретизация насыщенности : 4:2:0
Битовая глубина : 8 бит
Тип развёртки : Прогрессивная
Бит/(Пиксели*Кадры) : 0.125
Размер потока : 3,64 Гбайт (81%)
Заголовок : BDRip by Ash61
Библиотека кодирования : x264 core 138 r2358 9e941d1
Настройки программы : cabac=1 / ref=4 / deblock=1:-3:-3 / analyse=0x3:0x113 / me=umh / subme=10 / psy=1 / psy_rd=1.00:0.15 / mixed_ref=1 / me_range=32 / chroma_me=1 / trellis=2 / 8x8dct=1 / cqm=0 / deadzone=21,11 / fast_pskip=1 / chroma_qp_offset=-3 / threads=12 / lookahead_threads=2 / sliced_threads=0 / nr=0 / decimate=1 / interlaced=0 / bluray_compat=0 / constrained_intra=0 / bframes=8 / b_pyramid=2 / b_adapt=2 / b_bias=0 / direct=3 / weightb=1 / open_gop=0 / weightp=2 / keyint=250 / keyint_min=23 / scenecut=40 / intra_refresh=0 / rc_lookahead=60 / rc=crf / mbtree=1 / crf=17.0 / qcomp=0.70 / qpmin=0 / qpmax=69 / qpstep=4 / vbv_maxrate=40000 / vbv_bufsize=30000 / crf_max=0.0 / nal_hrd=none / frame-packing=4 / ip_ratio=1.40 / aq=1:0.70
Язык : English
Default : Да
Forced : Нет
Аудио #1
Идентификатор : 2
Формат : AC-3
Формат/Информация : Audio Coding 3
Расширение режима : CM (complete main)
Параметр Endianness формата : Big
Идентификатор кодека : A_AC3
Продолжительность : 1 ч. 23 м.
Вид битрейта : Постоянный
Битрейт : 640 Кбит/сек
Каналы : 6 каналов
Расположение каналов : Front: L C R, Side: L R, LFE
Частота : 48,0 КГц
Частота кадров : 31,250 кадров/сек (1536 spf)
Метод сжатия : С потерями
Размер потока : 383 Мбайт (8%)
Заголовок : Дубляж - BD
Язык : Russian
Default : Да
Forced : Нет
Аудио #2
Идентификатор : 3
Формат : AC-3
Формат/Информация : Audio Coding 3
Расширение режима : CM (complete main)
Параметр Endianness формата : Big
Идентификатор кодека : A_AC3
Продолжительность : 1 ч. 23 м.
Вид битрейта : Постоянный
Битрейт : 640 Кбит/сек
Каналы : 6 каналов
Расположение каналов : Front: L C R, Side: L R, LFE
Частота : 48,0 КГц
Частота кадров : 31,250 кадров/сек (1536 spf)
Метод сжатия : С потерями
Размер потока : 383 Мбайт (8%)
Заголовок : Original - BD 3D
Язык : English
Default : Нет
Forced : Нет
Текст #1
Идентификатор : 4
Формат : UTF-8
Идентификатор кодека : S_TEXT/UTF8
Идентификатор кодека/Информация : UTF-8 Plain Text
Заголовок : Форсированные
Язык : Russian
Default : Да
Forced : Нет
Текст #2
Идентификатор : 5
Формат : UTF-8
Идентификатор кодека : S_TEXT/UTF8
Идентификатор кодека/Информация : UTF-8 Plain Text
Заголовок : Полные
Язык : Russian
Default : Нет
Forced : Нет
Текст #3
Идентификатор : 6
Формат : UTF-8
Идентификатор кодека : S_TEXT/UTF8
Идентификатор кодека/Информация : UTF-8 Plain Text
Заголовок : Full <i>
Язык : English
Default : Нет
Forced : Нет
Текст #4
Идентификатор : 7
Формат : UTF-8
Идентификатор кодека : S_TEXT/UTF8
Идентификатор кодека/Информация : UTF-8 Plain Text
Заголовок : SDH <i>
Язык : English
Default : Нет
Forced : Нет
Текст #5
Идентификатор : 8
Формат : UTF-8
Идентификатор кодека : S_TEXT/UTF8
Идентификатор кодека/Информация : UTF-8 Plain Text
Заголовок : SDH-Colored <i>
Язык : English
Default : Нет
Forced : Нет
Меню
00:00:00.000 : :1
00:03:27.789 : :2
00:07:48.593 : :3
00:12:36.004 : :4
00:17:38.848 : :5
00:22:55.164 : :6
00:27:45.288 : :7
00:32:37.204 : :8
00:35:24.789 : :9
00:38:31.016 : :10 / :11
00:41:38.286 : :12
00:47:21.045 : :13
00:55:00.713 : :14
00:57:29.027 : :15
01:00:33.880 : :16
01:05:22.710 : :17
01:09:07.685 : :18
01:13:55.264 : :19

Скриншоты

Создавать темы 15-Мар-2016 23:23

[Профиль]  [ЛС] 
Показать сообщения:    
Ответить на тему

Текущее время: 22-Ноя 02:30

Часовой пояс: UTC + 5



Вы не можете начинать темы
Вы не можете отвечать на сообщения
Вы не можете редактировать свои сообщения
Вы не можете удалять свои сообщения
Вы не можете голосовать в опросах
Вы не можете прикреплять файлы к сообщениям
Вы не можете скачивать файлы