Куда приводят мечты / What Dreams May Come (Винсент Уорд / Vincent Ward) [1998, США, Новая Зеландия, фэнтези, мелодрама, драма, DVDRip] (Dub : Киноконцерн "Мосфильм")

Ответить на тему
 

csant ®

Стаж: 2 года

Сообщений: 2

Симпатии: 2

-Куда приводят мечты / What Dreams May Come- Страна: США, Новая Зеландия
Жанр: фэнтези, мелодрама, драма
Год выпуска: 1998
Продолжительность: 01:48:42-Перевод: Профессиональный (дублированный) Доп. инфо о переводе Киноконцерн "Мосфильм"
Cубтитры: нет-Режиссер: Винсент Уорд / Vincent Ward-В ролях: Робин Уильямс (Chris Nielsen), Кьюба Гудинг мл. (Albert Lewis,), Аннабелла Шиорра (Annie Collins-Nielsen), Макс фон Сюдов (The Tracker), Джессика Брукс Грант (Marie Nielsen), Джош Пэддок (Ian Nielsen), Розалинд Чао (Leona), Люсинда Дженни (Mrs. Jacobs), Мэгги МакКарти (Stacey Jacobs), Уильма Бонет (Angie), Мэтт Салинджер (Reverend Hanley), Кэрин Спрэг (Best Friend Cindy)
Дублёры: Алексей Иващенко (Chris Nielsen), Всеволод Кузнецов (Albert Lewis), Анна Каменкова (Annie Collins-Nielsen), Владимир Еремин (The Tracker)-Описание: После гибели Криса Нилсена в автокатастрофе он, обретя бессмертие, пытается остаться рядом со своей прекрасной, но смертной женой Энни. С помощью дружественного духа, приставленного к нему в качестве проводника, он начинает привыкать к своему новому существованию в окружении, которое иначе как райским не назовешь. Но когда его обезумевшая от горя жена кончает жизнь самоубийством, ее проклинают и навечно изгоняют в ад. Крис изо всех сил пытается отыскать любимую, чтобы всегда быть с ней, но еще никому и никогда не удавалось спасти грешную душу от ужасного, но заслуженного возмездия. Благодаря помощи своих небесных друзей Крис отправляется в самое опасное и мучительное путешествие в своей жизни, точнее, в жизни после смерти.-Доп. информация: Бюджет: $85 000 000
Сборы в США: $55 382 927
Мировая премьера: 28 сентября 1998-Качество видео: HDRip
Формат видео: AVI
Видео: XVID, 1370 Кбит/сек, 720x304 пикселя
Аудио: AC-3, 448 Кбит/сек, 6 каналов-

MediaInfo

Общее
Полное имя : E:\Torrent Films\Мои раздачи\Куда приводят мечты What Dreams May Come (HDRip).avi
Формат : AVI
Формат/Информация : Audio Video Interleave
Размер файла : 1,45 Гбайт
Продолжительность : 1 ч. 53 м.
Общий поток : 1827 Кбит/сек
Программа кодирования : VirtualDubMod 1.5.10.2 (build 2540/release)
Библиотека кодирования : VirtualDubMod build 2540/release
Видео
Идентификатор : 0
Формат : MPEG-4 Visual
Профиль формата : Advanced [email protected]
Параметр BVOP формата : 1
Параметр QPel формата : Нет
Параметр GMC формата : Без точки перехода
Параметр матрицы формата : Выборочная
Идентификатор кодека : XVID
Идентификатор кодека/Подсказка : XviD
Продолжительность : 1 ч. 53 м.
Битрейт : 1370 Кбит/сек
Ширина : 720 пикселей
Высота : 304 пикселя
Соотношение сторон : 2,35:1
Частота кадров : 23,976 (23976/1000) кадра/сек
Цветовое пространство : YUV
Субдискретизация насыщенности : 4:2:0
Битовая глубина : 8 бит
Тип развёртки : Прогрессивная
Метод сжатия : С потерями
Бит/(Пиксели*Кадры) : 0.261
Размер потока : 1,09 Гбайт (75%)
Библиотека кодирования : XviD 1.2.1 (UTC 2008-12-04)
Аудио
Идентификатор : 1
Формат : AC-3
Формат/Информация : Audio Coding 3
Расширение режима : CM (complete main)
Параметр Endianness формата : Big
Идентификатор кодека : 2000
Продолжительность : 1 ч. 53 м.
Вид битрейта : Постоянный
Битрейт : 448 Кбит/сек
Каналы : 6 каналов
Расположение каналов : Front: L C R, Side: L R, LFE
Частота : 48,0 КГц
Частота кадров : 31,250 кадров/сек (1536 spf)
Метод сжатия : С потерями
Размер потока : 364 Мбайт (25%)
Выравнивание : Разделение по промежуткам
Продолжительность промежутка : 42 мс. (1,00 видеокадр)
Время предзагрузки промежутка : 500 мс.

Скриншот c названием фильма

Создавать темы 15-Мар-2016 23:38

[Профиль]  [ЛС] 
Показать сообщения:    
Ответить на тему

Текущее время: 16-Дек 15:48

Часовой пояс: UTC + 5



Вы не можете начинать темы
Вы не можете отвечать на сообщения
Вы не можете редактировать свои сообщения
Вы не можете удалять свои сообщения
Вы не можете голосовать в опросах
Вы не можете прикреплять файлы к сообщениям
Вы не можете скачивать файлы