Ип Ман 3D / Yip Man 3 (Уилсон Ип / Wilson Yip) [2015, Китай, Гонконг, Боевик, драма, биография, история, BDRip] (MVO : RecentFilms)

Ответить на тему
 

UZM ®

Стаж: 5 лет 4 месяца

Сообщений: 169

Симпатии: 189

Ип Ман 3D / Yip Man 3
Страна: Китай, Гонконг
Жанр: Боевик, драма, биография, история
Год выпуска: 2015
Продолжительность: 01:44:41
Перевод: Любительский (многоголосый закадровый) Доп. инфо о переводе RecentFilms
Cубтитры: нет
Режиссер: Уилсон Ип / Wilson Yip
В ролях: Донни Ен, Линн Хун, Цзинь Чжан, Майк Тайсон, Патрик Там, Карина ЭнДжи, Кент Чэн, Ка-Ян Леунг, Квок-Куен Чан
Описание: Полубиографический фильм о жизни Ип Мана — первого человека, начавшего открыто преподавать кунг-фу (стиль Вин-Чунь).
Качество видео: BDRip
Формат видео: AVI
Видео: MPEG-4, Xvid 720x304 24fps 1604kbps
Аудио: Dolby AC3 48,0Hz stereo 192kbps (русский)
Аудио 2: Dolby AC3 48,0Hz stereo 192kbps (китайский)

MediaInfo

General
Complete name : D:\Кино\Фильмы 2016\Ip_Man_3_2015_BDRip_MVO_by_Dalemake.avi
Format : AVI
Format/Info : Audio Video Interleave
File size : 1.46 GiB
Duration : 1h 44mn
Overall bit rate : 2 002 Kbps
Writing application : VirtualDubMod 1.5.10.3 | www.virtualdub-fr.org || (build 2550/release)
Writing library : VirtualDubMod build 2550/release
Video
ID : 0
Format : MPEG-4 Visual
Format profile : Advanced [email protected]
Format settings, BVOP : 1
Format settings, QPel : No
Format settings, GMC : No warppoints
Format settings, Matrix : Custom
Codec ID : XVID
Codec ID/Hint : XviD
Duration : 1h 44mn
Bit rate : 1 604 Kbps
Width : 720 pixels
Height : 304 pixels
Display aspect ratio : 2.35:1
Frame rate : 24.000 fps
Color space : YUV
Chroma subsampling : 4:2:0
Bit depth : 8 bits
Scan type : Progressive
Compression mode : Lossy
Bits/(Pixel*Frame) : 0.305
Stream size : 1.17 GiB (80%)
Writing library : XviD 67
Audio #1
ID : 1
Format : AC-3
Format/Info : Audio Coding 3
Mode extension : CM (complete main)
Format settings, Endianness : Big
Codec ID : 2000
Duration : 1h 44mn
Bit rate mode : Constant
Bit rate : 192 Kbps
Channel(s) : 2 channels
Channel positions : Front: L R
Sampling rate : 48.0 KHz
Compression mode : Lossy
Stream size : 144 MiB (10%)
Alignment : Split accross interleaves
Interleave, duration : 42 ms (1.00 video frame)
Interleave, preload duration : 500 ms
Audio #2
ID : 2
Format : AC-3
Format/Info : Audio Coding 3
Mode extension : CM (complete main)
Format settings, Endianness : Big
Codec ID : 2000
Duration : 1h 44mn
Bit rate mode : Constant
Bit rate : 192 Kbps
Channel(s) : 2 channels
Channel positions : Front: L R
Sampling rate : 48.0 KHz
Compression mode : Lossy
Stream size : 144 MiB (10%)
Alignment : Split accross interleaves
Interleave, duration : 42 ms (1.00 video frame)
Interleave, preload duration : 500 ms

Скриншоты

,
,
,


Последний раз редактировалось: UZM (2016-03-16 20:09), всего редактировалось 1 раз

Создавать темы 16-Мар-2016 07:45

[Профиль]  [ЛС] 
Показать сообщения:    
Ответить на тему

Текущее время: 25-Сен 11:19

Часовой пояс: UTC + 5



Вы не можете начинать темы
Вы не можете отвечать на сообщения
Вы не можете редактировать свои сообщения
Вы не можете удалять свои сообщения
Вы не можете голосовать в опросах
Вы не можете прикреплять файлы к сообщениям
Вы не можете скачивать файлы