Голодные игры: Сойка-пересмешница. Часть II / The Hunger Games: Mockingjay - Part 2 (Френсис Лоуренс) [2015, США, фантастика, приключения, BDRip] Dub (Чистый звук) + Original (Eng) + Sub (Eng)

Ответить на тему
 

lotto ®

Стаж: 7 лет 10 месяцев

Сообщений: 221

Симпатии: 409

Голодные игры: Сойка-пересмешница. Часть II /
The Hunger Games: Mockingjay - Part 2

«Да не угаснет пламя»
-- --Страна: США
Жанр: фантастика, приключения
Год выпуска: 2015
Продолжительность: 02:16:57
Перевод: Профессиональный (дублированный) Чистый звук
Cубтитры: английские
Оригинальная аудиодорожка: английский--Режиссер: Френсис Лоуренс
В ролях: Дженнифер Лоуренс, Джош Хатчерсон, Лиам Хемсворт, Вуди Харрельсон, Дональд Сазерленд, Филип Сеймур, Хоффман Джулианна Мур, Уиллоу Шилд,с Сэм Клафлин, Элизабет Бэнкс--Описание: В Панеме начинается гражданская война против власти Капитолия. Китнисс Эвердин является символом Революции, однако сама себя не осознает как мессия повстанцев. Заручившись помощью близких друзей, Китнисс отправляется в Капитолий. Друзья готовы рискнуть своими жизнями, чтобы освободить граждан Панема, а Китнисс предпринимает попытку убить президента Сноу, который, в свою очередь, одержим идеей навсегда покончить с героиней Дистрикта 12. Но победа повстанцев имеет горький вкус, и Китнисс ждёт гораздо более трудное испытание, чем смертельные ловушки арены Голодных игр.-- --Качество видео: BDRip
Формат видео: MKV
Видео: H264 1280x534 23.976fps 5500 kbps
Аудио: AC3 48000Hz stereo 384kbps (русский, дублированный)
Аудио 2: AC3 48000Hz 6ch 640kbp (оригинал)
Формат субтитров: softsub (SRT)

MediaInfo

General
Unique ID : 196787387646620717037901679806075297537 (0x940BDF4C1471D5FC97E9BE7971D6DF01)
Complete name : The Hunger Games.Mockingjay.Part.2.2015.720p.BluRay.mkv
Format : Matroska
Format version : Version 4 / Version 2
File size : 6.23 GiB
Duration : 2h 16mn
Overall bit rate : 6 516 Kbps
Movie name : The Hunger Games Mockingjay
Encoded date : UTC 2016-03-17 02:36:49
Writing application : mkvmerge v7.9.0 ('Birds') 32bit
Writing library : libebml v1.3.1 + libmatroska v1.4.2
Cover : Yes
Attachments : cover.jpg
Video
ID : 1
Format : AVC
Format/Info : Advanced Video Codec
Format profile : [email protected]
Format settings, CABAC : Yes
Format settings, ReFrames : 12 frames
Codec ID : V_MPEG4/ISO/AVC
Duration : 2h 16mn
Bit rate : 5 500 Kbps
Width : 1 280 pixels
Height : 534 pixels
Display aspect ratio : 2.40:1
Frame rate mode : Constant
Frame rate : 23.976 (24000/1001) fps
Color space : YUV
Chroma subsampling : 4:2:0
Bit depth : 8 bits
Scan type : Progressive
Bits/(Pixel*Frame) : 0.336
Stream size : 5.24 GiB (84%)
Writing library : x264 core 148 r2665kMod a01e339
Encoding settings : cabac=1 / ref=12 / deblock=1:-3:-3 / analyse=0x3:0x133 / me=umh / subme=11 / psy=1 / fade_compensate=0.00 / psy_rd=1.05:0.00 / mixed_ref=1 / me_range=32 / chroma_me=1 / trellis=2 / 8x8dct=1 / cqm=0 / deadzone=21,11 / fast_pskip=0 / chroma_qp_offset=-2 / threads=17 / lookahead_threads=2 / sliced_threads=0 / nr=0 / decimate=0 / interlaced=0 / bluray_compat=0 / constrained_intra=0 / fgo=0 / bframes=9 / b_pyramid=2 / b_adapt=2 / b_bias=0 / direct=3 / weightb=1 / open_gop=0 / weightp=2 / keyint=240 / keyint_min=24 / scenecut=40 / intra_refresh=0 / rc=2pass / mbtree=0 / bitrate=5500 / ratetol=1.0 / qcomp=0.70 / qpmin=0 / qpmax=69 / qpstep=4 / cplxblur=20.0 / qblur=0.5 / ip_ratio=1.10 / pb_ratio=1.20 / aq=3:0.85
Language : English
Default : Yes
Forced : No
Audio #1
ID : 2
Format : AC-3
Format/Info : Audio Coding 3
Mode extension : CM (complete main)
Format settings, Endianness : Big
Codec ID : A_AC3
Duration : 2h 16mn
Bit rate mode : Constant
Bit rate : 384 Kbps
Channel(s) : 2 channels
Channel positions : Front: L R
Sampling rate : 48.0 KHz
Frame rate : 31.250 fps (1536 spf)
Compression mode : Lossy
Stream size : 376 MiB (6%)
Title : DUB
Language : Russian
Default : Yes
Forced : No
Audio #2
ID : 3
Format : AC-3
Format/Info : Audio Coding 3
Mode extension : CM (complete main)
Format settings, Endianness : Big
Codec ID : A_AC3
Duration : 2h 16mn
Bit rate mode : Constant
Bit rate : 640 Kbps
Channel(s) : 6 channels
Channel positions : Front: L C R, Side: L R, LFE
Sampling rate : 48.0 KHz
Frame rate : 31.250 fps (1536 spf)
Compression mode : Lossy
Stream size : 627 MiB (10%)
Language : English
Default : No
Forced : No
Text #1
ID : 4
Format : UTF-8
Codec ID : S_TEXT/UTF8
Codec ID/Info : UTF-8 Plain Text
Duration : 2h 4mn
Bit rate : 47 bps
Count of elements : 1350
Stream size : 42.9 KiB (0%)
Title : English-SRT
Language : English
Default : No
Forced : No
Menu
00:00:00.000 : en:00:00:00.000
00:07:39.042 : en:00:07:39.042
00:16:49.217 : en:00:16:49.217
00:24:46.985 : en:00:24:46.985
00:31:59.960 : en:00:31:59.960
00:37:11.688 : en:00:37:11.688
00:46:42.717 : en:00:46:42.717
00:55:00.881 : en:00:55:00.881
01:02:46.429 : en:01:02:46.429
01:09:27.497 : en:01:09:27.497
01:18:42.968 : en:01:18:42.968
01:29:51.136 : en:01:29:51.136
01:37:08.239 : en:01:37:08.239
01:49:01.785 : en:01:49:01.785
01:56:55.759 : en:01:56:55.759
02:03:33.239 : en:02:03:33.239

Скриншот c названием фильма

Скриншоты






Создавать темы 17-Мар-2016 08:05

[Профиль]  [ЛС] 

lyrics

Стаж: 5 лет 10 месяцев

Сообщений: 22

Симпатии: 1

модераторы сделайте ПЛС раздачу золотой. Она того стоит!

Создавать темы 10-Апр-2016 10:54

[Профиль]  [ЛС] 

lyrics

Стаж: 5 лет 10 месяцев

Сообщений: 22

Симпатии: 1

Парни дайте качать вы чё

Создавать темы 10-Апр-2016 10:55

[Профиль]  [ЛС] 

lyrics

Стаж: 5 лет 10 месяцев

Сообщений: 22

Симпатии: 1

алё парни вы где??!!

Создавать темы 12-Апр-2016 10:34

[Профиль]  [ЛС] 

v1rus

Стаж: 4 года

Сообщений: 25

Симпатии: 2

Дайте скорость народ

Создавать темы 03-Авг-2016 13:33

[Профиль]  [ЛС] 

v1rus

Стаж: 4 года

Сообщений: 25

Симпатии: 2

Ей народ скорости пжста

Создавать темы 13-Авг-2016 09:58

[Профиль]  [ЛС] 

v1rus

Стаж: 4 года

Сообщений: 25

Симпатии: 2

встаньте на раздачу ребята пжлста не могу скачать

Создавать темы 15-Авг-2016 13:11

[Профиль]  [ЛС] 
Показать сообщения:    
Ответить на тему

Текущее время: 19-Ноя 02:45

Часовой пояс: UTC + 5



Вы не можете начинать темы
Вы не можете отвечать на сообщения
Вы не можете редактировать свои сообщения
Вы не можете удалять свои сообщения
Вы не можете голосовать в опросах
Вы не можете прикреплять файлы к сообщениям
Вы не можете скачивать файлы