Лига чемпионов 2015/16 1/8 финала, ответный матч. Барселона - Арсенал Полный матч [2016, Футбол, TVRip]

Ответить на тему
 

Eli4455 ®

Стаж: 1 год 8 месяцев

Сообщений: 3

Симпатии: 4

Лига чемпионов 2015/16 1/8 финала, ответный матч. Барселона - Арсенал Полный матч / /
Жанр: Футбол
Год выпуска: 2016
Продолжительность: 01:43:01
Описание: Лига чемпионов 2015/161/8 финала, ответный матч(результат первого матча - 2:0) 16 марта. Барселона. Стадион "Камп Ноу". Судья - Сергей Карасев (Россия).
Чтобы обыгрывать «Барселону» на «Камп Ноу», нужно творить настоящие чудеса. Чтобы иметь при этом преимущество в два мяча и более, надо собирать силы всех величайших магов. «Арсеналу» же волшебства сотворить не удалось: «канониры» показали в Каталонии весьма сырой футбол и были вполне заслуженно биты маститой «блауграной». Ещё по прибытии в Барселону англичане находились в патовом положении: два пропущенных на своей арене безответных мяча висели на их плечах тяжким грузом. А уже на 18-й минуте отчётной встречи Неймар сделал его неподъёмным, открыв счёт матча и увеличив общее преимущество «сине-гранатовых» до трёх мячей. Лондонцы после такого долго собирались с мыслями, радовались сэйвам Давида Оспины, и только в дебюте второго тайма забили ответный гол – отличился Мохамед Эльнени. Но развить успех гостям не удалось. До конца встречи у них возникло ещё три момента для взятия ворот, но они ни одним не воспользовались. А вот «Барса» к своим возможностям отнеслась бережнее и заставила ещё дважды капитулировать Оспину. Гол-шедевр ножницами на 65-й минуте забил Луис Суарес, а под занавес встречи Лионель Месси поставил жирную точку в противостоянии. В карьере аргентинца этот мяч стал уже 498-м, а его команда вышла в четвертьфинал Лиги чемпионов.
Доп. информация: Лига чемпионов 2015/161/8 финала, ответный матч(результат первого матча - 2:0) 16 марта. Барселона. Стадион "Камп Ноу". Судья - Сергей Карасев (Россия).
Чтобы обыгрывать «Барселону» на «Камп Ноу», нужно творить настоящие чудеса. Чтобы иметь при этом преимущество в два мяча и более, надо собирать силы всех величайших магов. «Арсеналу» же волшебства сотворить не удалось: «канониры» показали в Каталонии весьма сырой футбол и были вполне заслуженно биты маститой «блауграной». Ещё по прибытии в Барселону англичане находились в патовом положении: два пропущенных на своей арене безответных мяча висели на их плечах тяжким грузом. А уже на 18-й минуте отчётной встречи Неймар сделал его неподъёмным, открыв счёт матча и увеличив общее преимущество «сине-гранатовых» до трёх мячей. Лондонцы после такого долго собирались с мыслями, радовались сэйвам Давида Оспины, и только в дебюте второго тайма забили ответный гол – отличился Мохамед Эльнени. Но развить успех гостям не удалось. До конца встречи у них возникло ещё три момента для взятия ворот, но они ни одним не воспользовались. А вот «Барса» к своим возможностям отнеслась бережнее и заставила ещё дважды капитулировать Оспину. Гол-шедевр ножницами на 65-й минуте забил Луис Суарес, а под занавес встречи Лионель Месси поставил жирную точку в противостоянии. В карьере аргентинца этот мяч стал уже 498-м, а его команда вышла в четвертьфинал Лиги чемпионов.
Качество видео: TVRip
Формат видео: TS
Видео: MPEG Video 720x576 (16:9) 25fps
Аудио: MPEG Audio 48000Hz mono 128kbps

MediaInfo

ID : 0 (0x0)
Complete name : D:\Footballs photos\bar vs ars\Barca vs Ars.ts
Format : MPEG-TS
File size : 3.11 GiB
Duration : 1h 43mn
Overall bit rate mode : Variable
Overall bit rate : 4 324 Kbps
Video
ID : 408 (0x198)
Menu ID : 11 (0xB)
Format : MPEG Video
Format version : Version 2
Format profile : [email protected]
Format settings, BVOP : Yes
Format settings, Matrix : Custom
Format settings, GOP : M=3, N=24
Codec ID : 2
Duration : 1h 43mn
Bit rate : 4 000 Kbps
Width : 720 pixels
Height : 576 pixels
Display aspect ratio : 16:9
Frame rate : 25.000 fps
Standard : PAL
Color space : YUV
Chroma subsampling : 4:2:0
Bit depth : 8 bits
Scan type : Interlaced
Scan order : Top Field First
Compression mode : Lossy
Bits/(Pixel*Frame) : 0.386
Time code of first frame : 22:26:26:20
Time code source : Group of pictures header
Stream size : 2.86 GiB (92%)
Audio
ID : 456 (0x1C8)
Menu ID : 11 (0xB)
Format : MPEG Audio
Format version : Version 1
Format profile : Layer 2
Codec ID : 4
Duration : 1h 43mn
Bit rate mode : Constant
Bit rate : 128 Kbps
Channel(s) : 1 channel
Sampling rate : 48.0 KHz
Compression mode : Lossy
Delay relative to video : -164ms
Stream size : 94.3 MiB (3%)
Language : English
Menu
ID : 1025 (0x401)
Menu ID : 11 (0xB)
Duration : 1h 43mn
List : 408 (0x198) (MPEG Video) / 456 (0x1C8) (MPEG Audio, English)
Language : / English
Service name : Idman_Azerbaycan
Service provider : Scopus
Service type : digital television]

Скриншоты





Создавать темы 17-Мар-2016 15:53

[Профиль]  [ЛС] 
Показать сообщения:    
Ответить на тему

Текущее время: 18-Ноя 00:38

Часовой пояс: UTC + 5



Вы не можете начинать темы
Вы не можете отвечать на сообщения
Вы не можете редактировать свои сообщения
Вы не можете удалять свои сообщения
Вы не можете голосовать в опросах
Вы не можете прикреплять файлы к сообщениям
Вы не можете скачивать файлы