24 часа (Александр Атанесян) [2000, боевик, DVDRip-AVC]

Ответить на тему
 

icefrog_ss ®

Стаж: 5 лет 3 месяца

Сообщений: 69

Симпатии: 3

24 часа
Жанр: боевик
Год выпуска: 2000
Продолжительность: 01:20:37
Режиссёр: Александр Атанесян
В ролях: Максим Суханов, Андрей Панин, Сергей Новиков, Михаил Козаков, Татьяна Самойлова, Игорь Старыгин, Георгий Тараторкин, Наталья Рогожкина, Владимир Еремин, Дмитрий Мухамадеев
Описание: Профессиональный киллер по кличке Феликс, не вовремя проявивший независимость, оказывается в центре передела сфер влияния преступных кланов и сам попадает под заказ. Его смерти хотят настолько влиятельные силы, что предают даже свои...
Очень стильный боевик с закрученным сюжетом.
Качество видео: DVDRip-AVC
Формат видео: MKV
Видео: [email protected] (1.33:1), 25 fps, AVC (H.264) ~1976 kbps avg, 0.194 bit/pixel
Аудио: 48 kHz, AC3 Dolby Digital, 3/2 (L,C,R,l,r) ch, ~448 kbps

MediaInfo

Общее
Уникальный идентификатор : 237365376467829207241572849800035035348 (0xB292E89BFA02FBF49108B9B8D641E8D4)
Полное имя : D:\КИНО\24 часа.mkv
Формат : Matroska
Версия формата : Version 2
Размер файла : 1,37 Гбайт
Продолжительность : 1 ч. 20 м.
Общий поток : 2425 Кбит/сек
Дата кодирования : UTC 2012-05-06 04:52:18
Программа кодирования : mkvmerge v5.2.1 ('A Far Off Place') built on Jan 2 2012 23:21:10
Библиотека кодирования : libebml v1.2.3 + libmatroska v1.3.0
Видео
Идентификатор : 1
Формат : AVC
Формат/Информация : Advanced Video Codec
Профиль формата : [email protected]
Параметр CABAC формата : Да
Параметр ReFrames формата : 16 кадров
Идентификатор кодека : V_MPEG4/ISO/AVC
Продолжительность : 1 ч. 20 м.
Битрейт : 1976 Кбит/сек
Ширина : 714 пикселей
Высота : 572 пикселя
Соотношение сторон : 4:3
Соотношение сторон в оригинале : 4:3
Частота кадров : 25,000 кадров/сек
Цветовое пространство : YUV
Субдискретизация насыщенности : 4:2:0
Битовая глубина : 8 бит
Тип развёртки : Прогрессивная
Бит/(Пиксели*Кадры) : 0.194
Размер потока : 1,09 Гбайт (80%)
Библиотека кодирования : x264 core 120 r2164 da19765
Настройки программы : cabac=1 / ref=16 / deblock=1:-2:-1 / analyse=0x3:0x133 / me=umh / subme=10 / psy=1 / psy_rd=1.00:0.10 / mixed_ref=1 / me_range=24 / chroma_me=1 / trellis=2 / 8x8dct=1 / cqm=0 / deadzone=21,11 / fast_pskip=1 / chroma_qp_offset=-3 / threads=3 / sliced_threads=0 / nr=0 / decimate=1 / interlaced=0 / bluray_compat=0 / constrained_intra=0 / bframes=8 / b_pyramid=0 / b_adapt=2 / b_bias=0 / direct=3 / weightb=1 / open_gop=0 / weightp=2 / keyint=250 / keyint_min=25 / scenecut=40 / intra_refresh=0 / rc_lookahead=60 / rc=2pass / mbtree=1 / bitrate=1976 / ratetol=1.0 / qcomp=0.60 / qpmin=10 / qpmax=51 / qpstep=4 / cplxblur=20.0 / qblur=0.5 / vbv_maxrate=50000 / vbv_bufsize=50000 / nal_hrd=none / ip_ratio=1.40 / aq=1:1.00
Default : Да
Forced : Нет
Аудио
Идентификатор : 2
Формат : AC-3
Формат/Информация : Audio Coding 3
Расширение режима : CM (complete main)
Идентификатор кодека : A_AC3
Продолжительность : 1 ч. 20 м.
Вид битрейта : Постоянный
Битрейт : 448 Кбит/сек
Каналы : 5 каналов
Расположение каналов : Front: L C R, Side: L R
Частота : 48,0 КГц
Битовая глубина : 16 бит
Метод сжатия : С потерями
Размер потока : 258 Мбайт (18%)
Default : Да
Forced : Нет

Скриншот c названием фильма

Скриншоты



Последний раз редактировалось: icefrog_ss (2016-03-17 21:09), всего редактировалось 2 раз(а)

Создавать темы 17-Мар-2016 20:36

[Профиль]  [ЛС] 

icefrog_ss ®

Стаж: 5 лет 3 месяца

Сообщений: 69

Симпатии: 3

Создавать темы 17-Мар-2016 20:38

[Профиль]  [ЛС] 

icefrog_ss ®

Стаж: 5 лет 3 месяца

Сообщений: 69

Симпатии: 3

Cкрины не так залил в первый раз

Создавать темы 17-Мар-2016 20:39

[Профиль]  [ЛС] 

icefrog_ss ®

Стаж: 5 лет 3 месяца

Сообщений: 69

Симпатии: 3

Создавать темы 17-Мар-2016 20:40

[Профиль]  [ЛС] 
Показать сообщения:    
Ответить на тему

Текущее время: 13-Дек 06:47

Часовой пояс: UTC + 5



Вы не можете начинать темы
Вы не можете отвечать на сообщения
Вы не можете редактировать свои сообщения
Вы не можете удалять свои сообщения
Вы не можете голосовать в опросах
Вы не можете прикреплять файлы к сообщениям
Вы не можете скачивать файлы