Готэм / Gotham / сезон: 2 / серии: 1-22 (22) (Т.Дж. Скотт, Дэнни Кэннон, Пол А. Эдвардс) [2015, триллер, драма, криминал , WEB-DLRip] MVO (NewStudio)

Ответить на тему
 

GRIMM ®

Стаж: 6 лет 8 месяцев

Сообщений: 811

Симпатии: 172

Готэм / Gotham
Сезон 2 Серия 1-22

Год выпуска: 2015
Страна: США
Жанр: Триллер, драма, криминал
Продолжительность: ~00:45:00--Перевод: Профессиональный многоголосый закадровый [NewStudio]-Режиссёр: Дэнни Кэннон--В ролях: Бен МакКензи, Шон Пертуи, Робин Тейлор, Забрина Гевара, Эрин Ричардс, Донал Лог, Джада Пинкетт Смит, Дэвид Мазоуз, Камрен Бикондова, Кори Майкл Смит--Описание: История о том, как Джеймс Гордон прошел нелегкий путь от детектива-новобранца до комиссара полиции.--Качество: WEB-DLRip
Формат: AVI
Видео кодек: XviD
Аудио кодек: MP3
Видео: XviD, ~ 1500 kb/s, 720х400
Аудио: Русский, английский (MP3, 2 ch, 128 kb/s)
--

MediaInfo

General
Complete name : Gotham.s02e01.WEBRip.NewStudio.avi
Format : AVI
Format/Info : Audio Video Interleave
File size : 497 MiB
Duration : 43mn 58s
Overall bit rate : 1 580 Kbps
Writing application : VirtualDubMod 1.5.10.2 (build 2540/release)
Writing library : VirtualDub build 35491/release
Video
ID : 0
Format : MPEG-4 Visual
Format profile : Advanced [email protected]
Format settings, BVOP : Yes
Format settings, QPel : No
Format settings, GMC : No warppoints
Format settings, Matrix : Default (MPEG)
Codec ID : XVID
Codec ID/Hint : XviD
Duration : 43mn 58s
Bit rate : 1 442 Kbps
Width : 720 pixels
Height : 400 pixels
Display aspect ratio : 16:9
Frame rate : 23.976 fps
Color space : YUV
Chroma subsampling : 4:2:0
Bit depth : 8 bits
Scan type : Progressive
Bits/(Pixel*Frame) : 0.209
Stream size : 454 MiB (91%)
Writing library : XviD 73
Audio
ID : 1
Format : MPEG Audio
Format version : Version 1
Format profile : Layer 3
Codec ID : 55
Codec ID/Hint : MP3
Duration : 43mn 58s
Bit rate mode : Constant
Bit rate : 128 Kbps
Channel(s) : 2 channels
Sampling rate : 48.0 KHz
Stream size : 40.3 MiB (8%)
Alignment : Aligned on interleaves
Interleave, duration : 42 ms (1.00 video frame)
Interleave, preload duration : 504 ms

Скриншоты




Последний раз редактировалось: GRIMM (2016-05-27 20:01), всего редактировалось 10 раз(а)

Создавать темы 17-Мар-2016 20:45

[Профиль]  [ЛС] 

GRIMM ®

Стаж: 6 лет 8 месяцев

Сообщений: 811

Симпатии: 172

Добавил 14 серию

Создавать темы 17-Мар-2016 20:46

[Профиль]  [ЛС] 

GRIMM ®

Стаж: 6 лет 8 месяцев

Сообщений: 811

Симпатии: 172

Добавил 15 серию

Создавать темы 24-Мар-2016 09:06

[Профиль]  [ЛС] 

GRIMM ®

Стаж: 6 лет 8 месяцев

Сообщений: 811

Симпатии: 172

Добавил 16 серию

Создавать темы 30-Мар-2016 23:25

[Профиль]  [ЛС] 

GRIMM ®

Стаж: 6 лет 8 месяцев

Сообщений: 811

Симпатии: 172

Добавил 17 серию

Создавать темы 15-Апр-2016 23:17

[Профиль]  [ЛС] 

GRIMM ®

Стаж: 6 лет 8 месяцев

Сообщений: 811

Симпатии: 172

Добавил 18 серию

Создавать темы 21-Апр-2016 21:45

[Профиль]  [ЛС] 

GRIMM ®

Стаж: 6 лет 8 месяцев

Сообщений: 811

Симпатии: 172

Добавил 19 серию

Создавать темы 08-Май-2016 20:02

[Профиль]  [ЛС] 

GRIMM ®

Стаж: 6 лет 8 месяцев

Сообщений: 811

Симпатии: 172

Добавил 20 серию

Создавать темы 12-Май-2016 21:02

[Профиль]  [ЛС] 

GRIMM ®

Стаж: 6 лет 8 месяцев

Сообщений: 811

Симпатии: 172

Добавил 21 серию

Создавать темы 21-Май-2016 11:04

[Профиль]  [ЛС] 

GRIMM ®

Стаж: 6 лет 8 месяцев

Сообщений: 811

Симпатии: 172

Добавил 22 серию ФИНАЛ СЕЗОНА

Создавать темы 27-Май-2016 20:03

[Профиль]  [ЛС] 
Показать сообщения:    
Ответить на тему

Текущее время: 20-Сен 01:44

Часовой пояс: UTC + 5



Вы не можете начинать темы
Вы не можете отвечать на сообщения
Вы не можете редактировать свои сообщения
Вы не можете удалять свои сообщения
Вы не можете голосовать в опросах
Вы не можете прикреплять файлы к сообщениям
Вы не можете скачивать файлы