Дочь Бога / Exposed (Деклан Дэйл) [2016, США, Триллер, драма, детектив, HDRip] (MVO : Paradox & Omskbird records)

Ответить на тему
 

UZM ®

Стаж: 5 лет 6 месяцев

Сообщений: 169

Симпатии: 189

Дочь Бога / Exposed
Страна: США
Жанр: Триллер, драма, детектив
Год выпуска: 2016
Продолжительность: 01:41:53
Перевод: Профессиональный (многоголосый закадровый) Paradox & Omskbird records
Cубтитры: нет
Режиссер: Деклан Дэйл
В ролях: Ана де Армас, Мира Сорвино, Биг Дэдди Кэйн, Кристофер МакДональд, Лаура Гомез, Киану Ривз, Клара Вонг,
Майкл Рисполи, Дения Браче...
Описание: С женщиной, которая стала свидетелем чуда, начинают происходить странные вещи. А в это время полицейский детектив пытается разобраться в том, что привело к смерти его напарника.
Качество видео: HDRip
Формат видео: AVI
Видео: MPEG-4, Xvid 720x304 24fps 1462kbps
Аудио: Dolby AC3 48,0Hz 6ch 448kbps

MediaInfo

General
Complete name : D:\Кино\Фильмы 2016\D04j.b0ga.2O16.P.HDRip.14OOMb.avi
Format : AVI
Format/Info : Audio Video Interleave
File size : 1.37 GiB
Duration : 1h 41mn
Overall bit rate : 1 920 Kbps
Movie name : D04j.b0ga.2O16.P.HDRip.14OOMb
Writing application : VirtualDubMod 1.5.10.2 (build 2540/release)
Original source form/Name : Movie
Video
ID : 0
Format : MPEG-4 Visual
Format profile : Advanced [email protected]
Format settings, BVOP : 2
Format settings, QPel : No
Format settings, GMC : No warppoints
Format settings, Matrix : Custom
Codec ID : XVID
Codec ID/Hint : XviD
Duration : 1h 41mn
Bit rate : 1 463 Kbps
Width : 720 pixels
Height : 304 pixels
Display aspect ratio : 2.35:1
Frame rate : 24.000 fps
Color space : YUV
Chroma subsampling : 4:2:0
Bit depth : 8 bits
Scan type : Progressive
Compression mode : Lossy
Bits/(Pixel*Frame) : 0.278
Stream size : 1.04 GiB (76%)
Writing library : XviD 1.2.1 (UTC 2008-12-04)
Audio
ID : 1
Format : AC-3
Format/Info : Audio Coding 3
Mode extension : CM (complete main)
Format settings, Endianness : Big
Codec ID : 2000
Duration : 1h 41mn
Bit rate mode : Constant
Bit rate : 448 Kbps
Channel(s) : 6 channels
Channel positions : Front: L C R, Side: L R, LFE
Sampling rate : 48.0 KHz
Compression mode : Lossy
Stream size : 326 MiB (23%)
Alignment : Split accross interleaves
Interleave, duration : 42 ms (1.00 video frame)
Interleave, preload duration : 500 ms

Скриншот c названием фильма

Скриншоты

,
,


Последний раз редактировалось: UZM (2016-03-17 21:31), всего редактировалось 1 раз

Создавать темы 17-Мар-2016 21:18

[Профиль]  [ЛС] 
Показать сообщения:    
Ответить на тему

Текущее время: 11-Дек 10:37

Часовой пояс: UTC + 5



Вы не можете начинать темы
Вы не можете отвечать на сообщения
Вы не можете редактировать свои сообщения
Вы не можете удалять свои сообщения
Вы не можете голосовать в опросах
Вы не можете прикреплять файлы к сообщениям
Вы не можете скачивать файлы