Выживший / The Revenant (Алехандро Гонсалес Иньярриту) [2015, США, триллер, драма, приключения, вестерн, WEB-DLRip] DUB

Ответить на тему
 

ruhal ®

Стаж: 2 года 6 месяцев

Сообщений: 1181

Симпатии: 1836

- -Выживший / The Revenant- Страна: США
Жанр: триллер, драма, приключения, вестерн
Год выпуска: 2015
Продолжительность: 02:36:21-Перевод: Профессиональный (дублированный)
Cубтитры: нет-Режиссер: Алехандро Гонсалес Иньярриту-В ролях: Леонардо ДиКаприо, Том Харди, Донал Глисон,
Уилл Поултер, Пол Андерсон, Лукас Хаас, Брэд Картер, Кристоффер Йонер, Брендан Флетчер-Описание: Охотник Хью Гласс серьезно ранен на неизведанных просторах американского Дикого Запада.
Товарищ Хью по отряду покорителей новых земель Джон Фицжеральд предательски оставляет его умирать в одиночестве.
Теперь у Гласса осталось только одно оружие — его сила воли. Он готов бросить вызов первобытной природе, суровой зиме и враждебным племенам индейцев,
только чтобы выжить и отомстить Фицжеральду.-Качество видео: WEB-DLRip
Формат видео: AVI
Видео: Xvid 720x304 23.976fps 1113kbps
Аудио: Dolby AC3 48000Hz stereo 128kbps-

MediaInfo

General
Complete name : E:\Films\Выживший (2O15) WEB-DLRip.avi
Format : AVI
Format/Info : Audio Video Interleave
File size : 1.37 GiB
Duration : 2h 36mn
Overall bit rate : 1 250 Kbps
Writing application : VirtualDubMod 1.5.10.2 (build 2540/release)
Writing library : VirtualDubMod build 2540/release
Video
ID : 0
Format : MPEG-4 Visual
Format profile : Advanced [email protected]
Format settings, BVOP : 2
Format settings, QPel : No
Format settings, GMC : No warppoints
Format settings, Matrix : Default (MPEG)
Codec ID : XVID
Codec ID/Hint : XviD
Duration : 2h 36mn
Bit rate : 1 113 Kbps
Width : 720 pixels
Height : 304 pixels
Display aspect ratio : 2.35:1
Frame rate : 23.976 fps
Color space : YUV
Chroma subsampling : 4:2:0
Bit depth : 8 bits
Scan type : Progressive
Compression mode : Lossy
Bits/(Pixel*Frame) : 0.212
Stream size : 1.22 GiB (89%)
Writing library : XviD 1.2.1 (UTC 2008-12-04)
Audio
ID : 1
Format : AC-3
Format/Info : Audio Coding 3
Mode extension : CM (complete main)
Format settings, Endianness : Big
Codec ID : 2000
Duration : 2h 36mn
Bit rate mode : Constant
Bit rate : 128 Kbps
Channel(s) : 2 channels
Channel positions : Front: L R
Sampling rate : 48.0 KHz
Bit depth : 16 bits
Compression mode : Lossy
Stream size : 143 MiB (10%)
Alignment : Split accross interleaves
Interleave, duration : 42 ms (1.00 video frame)
Interleave, preload duration : 500 ms

Скриншот c названием фильма

Скриншоты





Последний раз редактировалось: ruhal (2016-04-12 14:29), всего редактировалось 1 раз

Создавать темы 24-Мар-2016 06:37

[Профиль]  [ЛС] 

Manson

Стаж: 7 лет 4 месяца

Сообщений: 92

Симпатии: 19

Вдруг кому понадобится, вот субтитры

Создавать темы 27-Мар-2016 00:20

[Профиль]  [ЛС] 
Показать сообщения:    
Ответить на тему

Текущее время: 17-Окт 06:53

Часовой пояс: UTC + 5



Вы не можете начинать темы
Вы не можете отвечать на сообщения
Вы не можете редактировать свои сообщения
Вы не можете удалять свои сообщения
Вы не можете голосовать в опросах
Вы не можете прикреплять файлы к сообщениям
Вы не можете скачивать файлы