Ночной мотоциклист (Юлий Слупский) [1972 г., Детектив, TVRip]

Ответить на тему
 

фазилов ®

Стаж: 3 года 8 месяцев

Сообщений: 310

Симпатии: 344

Ночной мотоциклист Год выпуска: 1972
Страна:СССР
Жанр: Детектив
Продолжительность: 01:05:49
Режиссер: Юлий Слупский
В ролях: Николай Олялин, Николай Гринько, Константин Степанков, Маргарита Кошелева, Олег Жаков, Александр Мовчан, Степан Крылов, Станислав Станкевич, Владимир Волков, Анатолий Барчук
Описание: В маленьком украинском городке Рогатине совершено убийство инженера Асеева. Орудие убийства — нож, принадлежавший местному охотнику Шабашникову. Первоначальное подозрение падает на него…
В день убийства в доме у Шабашникова побывали пятеро; убийцу следует искать среди них. При этом у одного из пятерых, начальника почты Фесенко — алиби, а у другого, тренера секции мотокросса Жаркова, недавно пропал мотоцикл… В результате дознания разоблачён военный преступник, служивший гитлеровцам и скрывшийся после войны от возмездия.

Доп. информация: По мотивам одноименной повести В.Смирнова.
Авторы сценария: — Игорь Болгарин, Виктор Смирнов
Оператор-постановщик: Николай Журавлёв
Композитор — Геннадий Гладков

Качество: TVRip
Формат: AVI
Видео кодек: XviD
Аудио кодек: MP3
Видео: 688x320 (2.15:1), 25 fps, XviD, 1443 kbps, 0.26 bit/pixel
Аудио: 48 kHz, MPEG Layer 3, 2 ch, 128.00 kbps

Mediainfo

General
Complete name : D:\Мои релизы\Ночной мотоциклист.avi
Format : AVI
Format/Info : Audio Video Interleave
File size : 744 MiB
Duration : 1h 5mn
Overall bit rate : 1 581 Kbps
Writing application : VirtualDubMod 1.5.10.2 (build 2540/release)
Writing library : VirtualDubMod build 2540/release
Video
ID : 0
Format : MPEG-4 Visual
Format profile : Advanced [email protected]
Format settings, BVOP : 1
Format settings, QPel : No
Format settings, GMC : No warppoints
Format settings, Matrix : Default (MPEG)
Codec ID : XVID
Codec ID/Hint : XviD
Duration : 1h 5mn
Bit rate : 1 443 Kbps
Width : 688 pixels
Height : 320 pixels
Display aspect ratio : 2.2:1
Frame rate : 25.000 fps
Color space : YUV
Chroma subsampling : 4:2:0
Bit depth : 8 bits
Scan type : Progressive
Compression mode : Lossy
Bits/(Pixel*Frame) : 0.262
Stream size : 679 MiB (91%)
Writing library : XviD 1.2.1 (UTC 2008-12-04)
Audio
ID : 1
Format : MPEG Audio
Format version : Version 1
Format profile : Layer 3
Codec ID : 55
Codec ID/Hint : MP3
Duration : 1h 5mn
Bit rate mode : Constant
Bit rate : 128 Kbps
Channel(s) : 2 channels
Sampling rate : 48.0 KHz
Compression mode : Lossy
Stream size : 60.3 MiB (8%)
Alignment : Aligned on interleaves
Interleave, duration : 40 ms (1.00 video frame)
Interleave, preload duration : 504 ms
Writing library : LAME3.98r
Encoding settings : -m s -V 4 -q 2 -lowpass 17 -b 128

Скриншот c названием фильма

Скриншоты

Создавать темы 24-Мар-2016 08:25

[Профиль]  [ЛС] 

фазилов ®

Стаж: 3 года 8 месяцев

Сообщений: 310

Симпатии: 344

УО- прописывайте IP-адрес в своём клиенте aa

Создавать темы 24-Мар-2016 11:10

[Профиль]  [ЛС] 
Показать сообщения:    
Ответить на тему

Текущее время: 18-Окт 21:44

Часовой пояс: UTC + 5



Вы не можете начинать темы
Вы не можете отвечать на сообщения
Вы не можете редактировать свои сообщения
Вы не можете удалять свои сообщения
Вы не можете голосовать в опросах
Вы не можете прикреплять файлы к сообщениям
Вы не можете скачивать файлы