Лига Легенд ТВ-1 / LOL: Lu's Time TV-1 [04 из 14] [TV] [Без хардсаба] [2013, WEBDLRip, приключения, фэнтези, комедия] [720p] [AniDub]

Ответить на тему
 

maksimus_1712 ®

Стаж: 4 года 1 месяц

Сообщений: 122

Симпатии: 68

-Лига Легенд ТВ-1 / LOL: Lu's Time TV-1- Год: 2013
Жанр: приключения, фэнтези, комедия
Страна: Китай
Количество серий: 14
Продолжительность: 10 мин
Озвучивание: Esther, Cuba77-Описание: Ребята загоняются по ЛОЛ. На почве общего увлечения они становятся отличными друзьями, а вскоре они уже готовы покорять новые вершины в кибер-мирах!-Качество: WEBDLRip
Формат видео: MP4
Видео: x264,1280x720,1506kbps,25fps
Аудио: ААС, 48000Hz, ~188kbps, 2ch- -

MediaInfo

General
Complete name                  : [AniDub]_LOL_Lus_Time_[01]_[720p].mp4
Format                         : MPEG-4
Format profile                 : Base Media
Codec ID                       : isom
File size                      : 81.1 MiB
Duration                       : 6mn 40s
Overall bit rate mode          : Variable
Overall bit rate               : 1 697 Kbps
Encoded date                   : UTC 2016-03-17 21:39:23
Tagged date                    : UTC 2016-03-17 21:39:23
Video
ID                             : 1
Format                         : AVC
Format/Info                    : Advanced Video Codec
Format profile                 : [email protected]
Format settings, CABAC         : Yes
Format settings, ReFrames      : 1 frame
Codec ID                       : avc1
Codec ID/Info                  : Advanced Video Coding
Duration                       : 6mn 40s
Bit rate                       : 1 506 Kbps
Maximum bit rate               : 6 939 Kbps
Width                          : 1 280 pixels
Height                         : 720 pixels
Display aspect ratio           : 16:9
Frame rate mode                : Constant
Frame rate                     : 25.000 fps
Color space                    : YUV
Chroma subsampling             : 4:2:0
Bit depth                      : 8 bits
Scan type                      : Progressive
Bits/(Pixel*Frame)             : 0.065
Stream size                    : 72.0 MiB (89%)
Tagged date                    : UTC 2016-03-17 21:39:27
Audio
ID                             : 2
Format                         : AAC
Format/Info                    : Advanced Audio Codec
Format profile                 : LC
Codec ID                       : 40
Duration                       : 6mn 40s
Bit rate mode                  : Variable
Bit rate                       : 192 Kbps
Maximum bit rate               : 197 Kbps
Channel(s)                     : 2 channels
Channel positions              : Front: L R
Sampling rate                  : 48.0 KHz
Compression mode               : Lossy
Stream size                    : 9.00 MiB (11%)
Language                       : English
Encoded date                   : UTC 2016-03-17 21:39:27
Tagged date                    : UTC 2016-03-17 21:39:27

Создавать темы 24-Мар-2016 13:11

[Профиль]  [ЛС] 

maksimus_1712 ®

Стаж: 4 года 1 месяц

Сообщений: 122

Симпатии: 68

3-4 Серия

Создавать темы 15-Апр-2016 20:07

[Профиль]  [ЛС] 

DaRk_LeGenD

Стаж: 4 года 5 месяцев

Сообщений: 9

а где остальные серии?

Создавать темы 11-Май-2016 17:16

[Профиль]  [ЛС] 

maksimus_1712 ®

Стаж: 4 года 1 месяц

Сообщений: 122

Симпатии: 68

будут

Создавать темы 11-Май-2016 17:17

[Профиль]  [ЛС] 
Показать сообщения:    
Ответить на тему

Текущее время: 24-Сен 08:22

Часовой пояс: UTC + 5



Вы не можете начинать темы
Вы не можете отвечать на сообщения
Вы не можете редактировать свои сообщения
Вы не можете удалять свои сообщения
Вы не можете голосовать в опросах
Вы не можете прикреплять файлы к сообщениям
Вы не можете скачивать файлы