Хот-Бот / Hot Bot (Майкл Полиш / Michael Polish) [2016, США, Фантастика, комедия, DVDRip] (DVO : Parovoz Production)

Ответить на тему
 

UZM ®

Стаж: 5 лет 6 месяцев

Сообщений: 169

Симпатии: 189

Хот-Бот / Hot Bot
Страна: США
Жанр: Фантастика, комедия
Год выпуска: 2016
Продолжительность: 01:32:24
Перевод: Любительский (двухголосый закадровый) Доп. инфо о переводе Parovoz Production
Cубтитры: нет
Режиссер: Майкл Полиш / Michael Polish
В ролях: Зак Перлман, Даг Хейли, Синтия Киршнер, Дэвид Шакелфорд, Энтони Андерсон, Дональд Фэйсон, Дэнни Мастерсон, Ларри Миллер, Анджела Кинси, Кирби Блисс Блэнтон
Описание: Приключения двух неудачников-ботанов, которым посчастиливилось пресечься с суперсексмоделью - роботшей Хот-Ботом
Доп. информация: Присутсвует реклама
Качество видео: WEB-DLRip
Формат видео: AVI
Видео: MPEG-4, Xvid 720x304 25fps 1724kbps
Аудио: Dolby AC3 48,0Hz stereo 384kbps

MediaInfo

General
Complete name : D:\Кино\Фильмы 2016\HoT.BoT.2O16.DVO.WEB-DLRip.14OOMB.avi
Format : AVI
Format/Info : Audio Video Interleave
File size : 1.37 GiB
Duration : 1h 32mn
Overall bit rate : 2 118 Kbps
Writing application : VirtualDubMod 1.5.10.2 (build 2540/release)
Writing library : VirtualDubMod build 2540/release
Video
ID : 0
Format : MPEG-4 Visual
Format profile : Advanced [email protected]
Format settings, BVOP : 2
Format settings, QPel : No
Format settings, GMC : No warppoints
Format settings, Matrix : Default (MPEG)
Codec ID : XVID
Codec ID/Hint : XviD
Duration : 1h 32mn
Bit rate : 1 725 Kbps
Width : 720 pixels
Height : 304 pixels
Display aspect ratio : 2.35:1
Frame rate : 25.000 fps
Color space : YUV
Chroma subsampling : 4:2:0
Bit depth : 8 bits
Scan type : Progressive
Compression mode : Lossy
Bits/(Pixel*Frame) : 0.315
Stream size : 1.11 GiB (81%)
Writing library : XviD 1.2.1 (UTC 2008-12-04)
Audio
ID : 1
Format : AC-3
Format/Info : Audio Coding 3
Mode extension : CM (complete main)
Format settings, Endianness : Big
Codec ID : 2000
Duration : 1h 32mn
Bit rate mode : Constant
Bit rate : 384 Kbps
Channel(s) : 2 channels
Channel positions : Front: L R
Sampling rate : 48.0 KHz
Compression mode : Lossy
Stream size : 254 MiB (18%)
Alignment : Split accross interleaves
Interleave, duration : 40 ms (1.00 video frame)
Interleave, preload duration : 500 ms

Скриншот c названием фильма

Скриншоты

,
,
,

Создавать темы 24-Мар-2016 21:53

[Профиль]  [ЛС] 

Андрей Варабей

Стаж: 4 года 9 месяцев

Сообщений: 67

Симпатии: 1

Фильм прикольный,жалко у нас не выпускают таких роботов.Я бы купил одного.

Создавать темы 28-Май-2016 18:43

[Профиль]  [ЛС] 
Показать сообщения:    
Ответить на тему

Текущее время: 11-Дек 14:16

Часовой пояс: UTC + 5



Вы не можете начинать темы
Вы не можете отвечать на сообщения
Вы не можете редактировать свои сообщения
Вы не можете удалять свои сообщения
Вы не можете голосовать в опросах
Вы не можете прикреплять файлы к сообщениям
Вы не можете скачивать файлы