Дублеры / The Replacements (Ховард Дойч/Howard Deutch) [2000, США, Комедия, спорт, BDRip] (Dub)

Ответить на тему
 

teddi ®

Стаж: 1 год 4 месяца

Сообщений: 87

Симпатии: 46

Дублеры / The Replacements
Страна: США
Жанр: Комедия, спорт
Год выпуска: 2000
Продолжительность: 01:58:22
Перевод: Профессиональный (дублированный) Доп. инфо о переводе Профессиональный многоголосый (ТК "Россия-1"
Cубтитры: нет
Режиссер: Ховард Дойч/Howard Deutch
В ролях: Киану Ривз, Джин Хэкмен, Брук Лэнгтон, Орландо Джонс, Файзон Лав, Майкл Талиферро, Эйс Йонамайн, Трой Уинбуш, Дэвид Денман, Джон Фавро
Описание: Когда до финала кубка по американскому футболу оставалось всего 4 игры, футбольная команда «Вашингтон» объявила забастовку и стала требовать повышения зарплаты. Вместо того чтобы пойти с ними на переговоры владелец команды дает задание тренеру Джимми МакГинти собрать команду дублеров и привести их к победе. Джимми соглашается, но при условии, что он сам выберет всех членов новой команды. И он набрал команду, которая была способна повергнуть в шок любого тренера и фаната футбола. В ее составе был бывший полусумасшедший спецназовец, вор, опасный заключенный и даже борец сумо! Их лидером стал Шейн Фалько, который был очень хорошим игроком, но он оставил большой спорт после разгромного поражения его команды в финале кубка. Каждый из этих игроков был в чем-то уникален. Их главный козырь в борьбе с соперниками - полная непредсказуемость.
Качество видео: BDRip
Формат видео: AVI
Видео: Xvid 720x400 23.976fps [V: mpeg4 advanced simple profile, yuv420p, 720x400]
Аудио: Dolby AC3 48000Hz 6ch 384kbps [A: ac3, 48000 Hz, 5.1, 384 kb/s]
Аудио 2: Dolby AC3 48000Hz stereo 192kbps [A: ac3, 48000 Hz, stereo, 192 kb/s]

MediaInfo

Общее
Полное имя : D:\p2p\in\Dublery.2000.XviD.BDRip-MediaClub.avi
Формат : AVI
Формат/Информация : Audio Video Interleave
Профиль формата : OpenDML
Размер файла : 2,06 Гбайт
Продолжительность : 1 ч. 58 м.
Общий поток : 2489 Кбит/сек
Название фильма : = MediaClub = rip by Painter
Программа кодирования : VirtualDubMod 1.5.10.3 (build 2550/release)
Библиотека кодирования : VirtualDubMod build 2550/release
Видео
Идентификатор : 0
Формат : MPEG-4 Visual
Профиль формата : Advanced [email protected]
Параметр BVOP формата : 2
Параметр QPel формата : Нет
Параметр GMC формата : Без точки перехода
Параметр матрицы формата : Выборочная
Идентификатор кодека : XVID
Идентификатор кодека/Подсказка : XviD
Продолжительность : 1 ч. 58 м.
Битрейт : 1895 Кбит/сек
Ширина : 720 пикселей
Высота : 400 пикселей
Соотношение сторон : 16:9
Частота кадров : 23,976 (23976/1000) кадра/сек
Цветовое пространство : YUV
Субдискретизация насыщенности : 4:2:0
Битовая глубина : 8 бит
Тип развёртки : Прогрессивная
Метод сжатия : С потерями
Бит/(Пиксели*Кадры) : 0.274
Размер потока : 1,57 Гбайт (76%)
Библиотека кодирования : XviD 73
Аудио #1
Идентификатор : 1
Формат : AC-3
Формат/Информация : Audio Coding 3
Расширение режима : CM (complete main)
Параметр Endianness формата : Big
Идентификатор кодека : 2000
Продолжительность : 1 ч. 58 м.
Вид битрейта : Постоянный
Битрейт : 384 Кбит/сек
Каналы : 6 каналов
Расположение каналов : Front: L C R, Side: L R, LFE
Частота : 48,0 КГц
Частота кадров : 31,250 кадров/сек (1536 spf)
Метод сжатия : С потерями
Размер потока : 325 Мбайт (15%)
Выравнивание : Разделение по промежуткам
Продолжительность промежутка : 42 мс. (1,00 видеокадр)
Время предзагрузки промежутка : 500 мс.
Аудио #2
Идентификатор : 2
Формат : AC-3
Формат/Информация : Audio Coding 3
Расширение режима : CM (complete main)
Параметр Endianness формата : Big
Идентификатор кодека : 2000
Продолжительность : 1 ч. 58 м.
Вид битрейта : Постоянный
Битрейт : 192 Кбит/сек
Каналы : 2 канала
Расположение каналов : Front: L R
Частота : 48,0 КГц
Частота кадров : 31,250 кадров/сек (1536 spf)
Метод сжатия : С потерями
Размер потока : 163 Мбайт (8%)
Выравнивание : Разделение по промежуткам
Продолжительность промежутка : 42 мс. (1,00 видеокадр)
Время предзагрузки промежутка : 500 мс.

Скриншоты



Последний раз редактировалось: teddi (2016-03-25 05:57), всего редактировалось 1 раз

Создавать темы 25-Мар-2016 00:24

[Профиль]  [ЛС] 

teddi ®

Стаж: 1 год 4 месяца

Сообщений: 87

Симпатии: 46

Привет всем!
Смотрел отдачу торрента, не могу понять, то ли я неправильно что-то делаю, то ли причина в чем-то другом, но никто не может от меня качать.
У меня Uzonline, у соседа тоже. Попросил его закачать торрент, сначала закачка не шла, потом, я вспомнил, что читал тему названную "Узонлайн - революция" http://www.tas-ix.net/viewtopic.php?t=112514, попробовали ему добавить ретрекеры из этой статьи и закачка пошла.
Кто-нибудь знает, что делать при создании торрент-раздачи, чтобы не было таких танцев с бубном?
Буду признателен за помощь в разрешении данного вопроса!

Создавать темы 25-Мар-2016 14:08

[Профиль]  [ЛС] 
Показать сообщения:    
Ответить на тему

Текущее время: 19-Авг 01:18

Часовой пояс: UTC + 5



Вы не можете начинать темы
Вы не можете отвечать на сообщения
Вы не можете редактировать свои сообщения
Вы не можете удалять свои сообщения
Вы не можете голосовать в опросах
Вы не можете прикреплять файлы к сообщениям
Вы не можете скачивать файлы