Звёздные войны: Пробуждение силы / Star Wars: Episode VII - The Force Awakens (Джей Джей Абрамс) [2015, США, фантастика, фэнтези, боевик, приключения, HDRip-AVC] Dub [iTunes] + Sub (Rus)

Ответить на тему
 

lotto ®

Стаж: 7 лет 11 месяцев

Сообщений: 221

Симпатии: 409

Звёздные войны: Пробуждение силы /
Star Wars: Episode VII - The Force Awakens

«Every generation has a story»
-- --Страна: США
Жанр: фантастика, фэнтези, боевик, приключения
Год выпуска: 2015
Продолжительность: 02:18:07
Перевод: Профессиональный (дублированный) [iTunes]
Cубтитры: русские форсированные--Режиссер: Джей Джей Абрамс
В ролях: Джон Бойега, Дэйзи Ридли, Оскар Айзек, Адам Драйвер, Донал Глисон, Харрисон Форд, Марк Хэмилл, Кэрри Фишер, Макс фон Сюдов, Энди Серкис--Описание: Через тридцать лет после гибели Дарта Вейдера и Императора галактика по-прежнему в опасности. Государственное образование Первый Орден во главе с их таинственным верховным лидером Сноуком и его правой рукой Кайло Реном идёт по стопам Империи, пытаясь захватить всю власть. В это нелёгкое время судьба сводит юную девушку Рей и бывшего штурмовика Первого Ордена Финна с героями времён войны с Империей — Ханом Соло, Чубаккой и генералом Леей. Вместе они должны дать бой Первому Ордену, однако настаёт тот момент, когда становится очевидно, что лишь джедаи могут остановить Сноука и Кайло Рена. И в галактике в живых остаётся только один…-- --Качество видео: HDRip-AVC
Формат видео: MKV
Видео: H264 1024x428 23.976fps 2 000 Kbps
Аудио: AC3 48000Hz 6 ch 384kbps (русский, дублированный)
Формат субтитров: softsub (SRT)

MediaInfo

General
Complete name : Star.Wars.The.Force.Awakens.2015.HDRip-AVC.mkv
Format : Matroska
Format version : Version 4 / Version 2
File size : 2.30 GiB
Duration : 2h 18mn
Overall bit rate : 2 385 Kbps
Movie name : Star Wars.The Force Awakens
Encoded date : UTC 2016-03-31 21:43:23
Writing application : mkvmerge v7.9.0 ('Birds') 32bit
Writing library : libebml v1.3.1 + libmatroska v1.4.2
Video
ID : 1
Format : AVC
Format/Info : Advanced Video Codec
Format profile : [email protected]
Format settings, CABAC : Yes
Format settings, ReFrames : 10 frames
Codec ID : V_MPEG4/ISO/AVC
Duration : 2h 18mn
Bit rate : 2 000 Kbps
Width : 1 024 pixels
Height : 428 pixels
Display aspect ratio : 2.40:1
Frame rate mode : Constant
Frame rate : 23.976 (24000/1001) fps
Standard : Component
Color space : YUV
Chroma subsampling : 4:2:0
Bit depth : 8 bits
Scan type : Progressive
Bits/(Pixel*Frame) : 0.190
Stream size : 1.93 GiB (84%)
Writing library : x264 core 144 r2525
Encoding settings : cabac=1 / ref=10 / deblock=1:-1:-1 / analyse=0x3:0x112 / me=umh / subme=9 / psy=1 / psy_rd=1.00:1.00 / mixed_ref=0 / me_range=16 / chroma_me=1 / trellis=1 / 8x8dct=1 / cqm=0 / deadzone=21,11 / fast_pskip=1 / chroma_qp_offset=-4 / threads=6 / lookahead_threads=1 / sliced_threads=0 / nr=0 / decimate=1 / interlaced=0 / bluray_compat=0 / constrained_intra=0 / bframes=10 / b_pyramid=2 / b_adapt=2 / b_bias=6 / direct=3 / weightb=0 / open_gop=0 / weightp=1 / keyint=239 / keyint_min=23 / scenecut=49 / intra_refresh=0 / rc_lookahead=40 / rc=2pass / mbtree=1 / bitrate=2000 / ratetol=1.0 / qcomp=0.80 / qpmin=4 / qpmax=69 / qpstep=10 / cplxblur=20.0 / qblur=0.5 / vbv_maxrate=4200 / vbv_bufsize=3500 / nal_hrd=none / filler=0 / ip_ratio=1.00 / aq=3:1.00
Default : Yes
Forced : No
Color range : Limited
Audio
ID : 2
Format : AC-3
Format/Info : Audio Coding 3
Mode extension : CM (complete main)
Format settings, Endianness : Big
Codec ID : A_AC3
Duration : 2h 18mn
Bit rate mode : Constant
Bit rate : 384 Kbps
Channel(s) : 6 channels
Channel positions : Front: L C R, Side: L R, LFE
Sampling rate : 48.0 KHz
Frame rate : 31.250 fps (1536 spf)
Compression mode : Lossy
Delay relative to video : -83ms
Stream size : 379 MiB (16%)
Title : DUB [iTunes]
Language : Russian
Default : Yes
Forced : No
Text
ID : 3
Format : UTF-8
Codec ID : S_TEXT/UTF8
Codec ID/Info : UTF-8 Plain Text
Duration : 2h 2mn
Bit rate : 1 bps
Count of elements : 26
Stream size : 1.13 KiB (0%)
Title : forced
Language : Russian
Default : Yes
Forced : No
Menu
00:00:00.000 : en:00:00:00.000
00:00:09.259 : en:00:00:09.259
00:01:43.061 : en:00:01:43.061
00:03:51.857 : en:00:03:51.857
00:06:12.289 : en:00:06:12.289
00:09:33.948 : en:00:09:33.948
00:10:43.560 : en:00:10:43.560
00:12:35.713 : en:00:12:35.713
00:13:39.694 : en:00:13:39.694
00:14:48.221 : en:00:14:48.221
00:16:45.922 : en:00:16:45.922
00:18:04.583 : en:00:18:04.583
00:19:21.535 : en:00:19:21.535
00:21:26.619 : en:00:21:26.619
00:24:03.651 : en:00:24:03.651
00:26:47.022 : en:00:26:47.022
00:29:54.668 : en:00:29:54.668
00:31:49.324 : en:00:31:49.324
00:35:51.775 : en:00:35:51.775
00:36:40.615 : en:00:36:40.615
00:37:45.513 : en:00:37:45.513
00:40:19.250 : en:00:40:19.250
00:43:39.200 : en:00:43:39.200
00:45:29.560 : en:00:45:29.560
00:49:22.918 : en:00:49:22.918
00:51:19.952 : en:00:51:19.952
00:54:13.750 : en:00:54:13.750
00:59:48.794 : en:00:59:48.794
01:04:16.061 : en:01:04:16.061
01:08:37.238 : en:01:08:37.238
01:11:07.221 : en:01:11:07.221
01:15:16.387 : en:01:15:16.387
01:16:49.897 : en:01:16:49.897
01:19:37.523 : en:01:19:37.523
01:20:56.894 : en:01:20:56.894
01:25:36.173 : en:01:25:36.173
01:32:12.569 : en:01:32:12.569
01:35:29.015 : en:01:35:29.015
01:36:34.956 : en:01:36:34.956
01:39:28.629 : en:01:39:28.629
01:41:29.959 : en:01:41:29.959
01:42:57.505 : en:01:42:57.505
01:45:00.002 : en:01:45:00.002
01:50:33.710 : en:01:50:33.710
01:53:39.771 : en:01:53:39.771
01:55:22.165 : en:01:55:22.165
01:58:05.453 : en:01:58:05.453
02:01:05.592 : en:02:01:05.592
02:02:32.679 : en:02:02:32.679
02:07:07.578 : en:02:07:07.578

Скриншот c названием фильма

Скриншоты






Последний раз редактировалось: lotto (2016-04-01 02:55), всего редактировалось 1 раз

Создавать темы 25-Мар-2016 06:08

[Профиль]  [ЛС] 

john titor

Стаж: 2 года 8 месяцев

Сообщений: 42

Симпатии: 5

релиз хороший ну этот joycasino достала на самых интереснах местах

Создавать темы 26-Мар-2016 20:52

[Профиль]  [ЛС] 

russa

Стаж: 6 лет 8 месяцев

Сообщений: 47

Симпатии: 2

можно скорости?!

Создавать темы 30-Мар-2016 21:10

[Профиль]  [ЛС] 

adidas

Стаж: 2 года 3 месяца

Сообщений: 4

Симпатии: 3

970719релиз хороший ну этот joycasino достала на самых интереснах местах
Спасибо за информацию,прохожу мимо)

Создавать темы 01-Апр-2016 09:58

[Профиль]  [ЛС] 

Fox_M

Стаж: 5 лет 1 месяц

Сообщений: 110

Симпатии: 35

Спасибо большое за релиз! Рекламы нет, картинка и звук хорошие!

Создавать темы 02-Апр-2016 00:45

[Профиль]  [ЛС] 

Rikardo

Стаж: 4 года

Сообщений: 48

Симпатии: 5

Спасибо! Хорошее продолжение! Жаль не посмотрел в кинотеатре.

Создавать темы 03-Апр-2016 11:46

[Профиль]  [ЛС] 

Naziroff

Стаж: 7 лет 2 месяца

Сообщений: 20

Симпатии: 1

В релизе есть реклама казино?

Создавать темы 11-Апр-2016 21:08

[Профиль]  [ЛС] 
Показать сообщения:    
Ответить на тему

Текущее время: 15-Дек 07:20

Часовой пояс: UTC + 5



Вы не можете начинать темы
Вы не можете отвечать на сообщения
Вы не можете редактировать свои сообщения
Вы не можете удалять свои сообщения
Вы не можете голосовать в опросах
Вы не можете прикреплять файлы к сообщениям
Вы не можете скачивать файлы