Звёздные войны: Пробуждение силы / Star Wars: Episode VII - The Force Awakens (Джей Джей Абрамс) [2015, США, фантастика, фэнтези, боевик, приключения, BDRip] Dub [iTunes] + Sub (Rus, Eng) + Original (Eng)

Ответить на тему
 

lotto ®

Стаж: 7 лет 10 месяцев

Сообщений: 221

Симпатии: 409

Звёздные войны: Пробуждение силы /
Star Wars: Episode VII - The Force Awakens

«Every generation has a story»
-- --Страна: США
Жанр: фантастика, фэнтези, боевик, приключения
Год выпуска: 2015
Продолжительность: 02:18:07
Перевод: Профессиональный (дублированный) [iTunes]
Cубтитры: английские, русские
Оригинальная аудиодорожка: английский--Режиссер: Джей Джей Абрамс
В ролях: Джон Бойега, Дэйзи Ридли, Оскар Айзек, Адам Драйвер, Донал Глисон, Харрисон Форд, Марк Хэмилл, Кэрри Фишер, Макс фон Сюдов, Энди Серкис--Описание: Через тридцать лет после гибели Дарта Вейдера и Императора галактика по-прежнему в опасности. Государственное образование Первый Орден во главе с их таинственным верховным лидером Сноуком и его правой рукой Кайло Реном идёт по стопам Империи, пытаясь захватить всю власть. В это нелёгкое время судьба сводит юную девушку Рей и бывшего штурмовика Первого Ордена Финна с героями времён войны с Империей — Ханом Соло, Чубаккой и генералом Леей. Вместе они должны дать бой Первому Ордену, однако настаёт тот момент, когда становится очевидно, что лишь джедаи могут остановить Сноука и Кайло Рена. И в галактике в живых остаётся только один…-- --Качество видео: BDRip
Формат видео: MKV
Видео: H264 1280x536 23.976fps 5290 kbps
Аудио: AC3 48000Hz 6 ch 384kbps (русский, дублированный)
Аудио 2: DTS 48000Hz 6ch 1536kbps (оригинал)
Формат субтитров: softsub (SRT)

MediaInfo

General
Complete name : Star Wars.Episode.VII.The Force Awakens.2015.720p.BDRip.mkv
Format : Matroska
Format version : Version 4 / Version 2
File size : 6.93 GiB
Duration : 2h 18mn
Overall bit rate : 7 185 Kbps
Movie name : Star Wars.The Force Awakens
Encoded date : UTC 2016-03-31 21:20:48
Writing application : mkvmerge v7.9.0 ('Birds') 32bit
Writing library : libebml v1.3.1 + libmatroska v1.4.2
Video
ID : 1
Format : AVC
Format/Info : Advanced Video Codec
Format profile : [email protected]
Format settings, CABAC : Yes
Format settings, ReFrames : 5 frames
Codec ID : V_MPEG4/ISO/AVC
Duration : 2h 18mn
Bit rate : 5 290 Kbps
Width : 1 280 pixels
Height : 536 pixels
Display aspect ratio : 2.40:1
Frame rate mode : Constant
Frame rate : 23.976 (24000/1001) fps
Color space : YUV
Chroma subsampling : 4:2:0
Bit depth : 8 bits
Scan type : Progressive
Bits/(Pixel*Frame) : 0.322
Stream size : 5.10 GiB (74%)
Title : Star.Wars.Episode.VII.The.Force.Awakens.2015.720p.BluRay.x264-Replica
Writing library : x264 core 148 r2665 a01e339
Encoding settings : cabac=1 / ref=5 / deblock=1:0:0 / analyse=0x3:0x113 / me=umh / subme=8 / psy=1 / psy_rd=1.00:0.00 / mixed_ref=1 / me_range=16 / chroma_me=1 / trellis=1 / 8x8dct=1 / cqm=0 / deadzone=21,11 / fast_pskip=0 / chroma_qp_offset=-2 / threads=17 / lookahead_threads=2 / sliced_threads=0 / nr=0 / decimate=1 / interlaced=0 / bluray_compat=0 / constrained_intra=0 / bframes=3 / b_pyramid=2 / b_adapt=2 / b_bias=0 / direct=3 / weightb=1 / open_gop=0 / weightp=2 / keyint=250 / keyint_min=23 / scenecut=40 / intra_refresh=0 / rc_lookahead=50 / rc=2pass / mbtree=1 / bitrate=5290 / ratetol=1.0 / qcomp=0.60 / qpmin=0 / qpmax=69 / qpstep=4 / cplxblur=20.0 / qblur=0.5 / ip_ratio=1.40 / aq=1:1.00
Language : English
Default : Yes
Forced : No
Audio #1
ID : 2
Format : AC-3
Format/Info : Audio Coding 3
Mode extension : CM (complete main)
Format settings, Endianness : Big
Codec ID : A_AC3
Duration : 2h 18mn
Bit rate mode : Constant
Bit rate : 384 Kbps
Channel(s) : 6 channels
Channel positions : Front: L C R, Side: L R, LFE
Sampling rate : 48.0 KHz
Frame rate : 31.250 fps (1536 spf)
Compression mode : Lossy
Stream size : 379 MiB (5%)
Title : DUB [iTunes]
Language : Russian
Default : Yes
Forced : No
Audio #2
ID : 3
Format : DTS
Format/Info : Digital Theater Systems
Mode : 16
Format settings, Endianness : Big
Codec ID : A_DTS
Duration : 2h 18mn
Bit rate mode : Constant
Bit rate : 1 509 Kbps
Channel(s) : 6 channels
Channel positions : Front: L C R, Side: L R, LFE
Sampling rate : 48.0 KHz
Frame rate : 93.750 fps (512 spf)
Bit depth : 24 bits
Compression mode : Lossy
Stream size : 1.46 GiB (21%)
Title : English DTS 5.1
Language : English
Default : No
Forced : No
Text #1
ID : 4
Format : UTF-8
Codec ID : S_TEXT/UTF8
Codec ID/Info : UTF-8 Plain Text
Duration : 2h 2mn
Bit rate : 1 bps
Count of elements : 26
Stream size : 1.13 KiB (0%)
Title : forced
Language : Russian
Default : Yes
Forced : No
Text #2
ID : 5
Format : UTF-8
Codec ID : S_TEXT/UTF8
Codec ID/Info : UTF-8 Plain Text
Duration : 2h 3mn
Bit rate : 68 bps
Count of elements : 1422
Stream size : 61.4 KiB (0%)
Language : Russian
Default : No
Forced : No
Text #3
ID : 6
Format : UTF-8
Codec ID : S_TEXT/UTF8
Codec ID/Info : UTF-8 Plain Text
Duration : 2h 0mn
Bit rate : 42 bps
Count of elements : 1403
Stream size : 37.3 KiB (0%)
Title : English regular
Language : English
Default : No
Forced : No
Text #4
ID : 7
Format : UTF-8
Codec ID : S_TEXT/UTF8
Codec ID/Info : UTF-8 Plain Text
Duration : 2h 6mn
Bit rate : 52 bps
Count of elements : 1778
Stream size : 48.5 KiB (0%)
Title : English sdh
Language : English
Default : No
Forced : No
Menu
00:00:00.000 : en:00:00:00.000
00:00:09.259 : en:00:00:09.259
00:01:43.061 : en:00:01:43.061
00:03:51.857 : en:00:03:51.857
00:06:12.289 : en:00:06:12.289
00:09:33.948 : en:00:09:33.948
00:10:43.560 : en:00:10:43.560
00:12:35.713 : en:00:12:35.713
00:13:39.694 : en:00:13:39.694
00:14:48.221 : en:00:14:48.221
00:16:45.922 : en:00:16:45.922
00:18:04.583 : en:00:18:04.583
00:19:21.535 : en:00:19:21.535
00:21:26.619 : en:00:21:26.619
00:24:03.651 : en:00:24:03.651
00:26:47.022 : en:00:26:47.022
00:29:54.668 : en:00:29:54.668
00:31:49.324 : en:00:31:49.324
00:35:51.775 : en:00:35:51.775
00:36:40.615 : en:00:36:40.615
00:37:45.513 : en:00:37:45.513
00:40:19.250 : en:00:40:19.250
00:43:39.200 : en:00:43:39.200
00:45:29.560 : en:00:45:29.560
00:49:22.918 : en:00:49:22.918
00:51:19.952 : en:00:51:19.952
00:54:13.750 : en:00:54:13.750
00:59:48.794 : en:00:59:48.794
01:04:16.061 : en:01:04:16.061
01:08:37.238 : en:01:08:37.238
01:11:07.221 : en:01:11:07.221
01:15:16.387 : en:01:15:16.387
01:16:49.897 : en:01:16:49.897
01:19:37.523 : en:01:19:37.523
01:20:56.894 : en:01:20:56.894
01:25:36.173 : en:01:25:36.173
01:32:12.569 : en:01:32:12.569
01:35:29.015 : en:01:35:29.015
01:36:34.956 : en:01:36:34.956
01:39:28.629 : en:01:39:28.629
01:41:29.959 : en:01:41:29.959
01:42:57.505 : en:01:42:57.505
01:45:00.002 : en:01:45:00.002
01:50:33.710 : en:01:50:33.710
01:53:39.771 : en:01:53:39.771
01:55:22.165 : en:01:55:22.165
01:58:05.453 : en:01:58:05.453
02:01:05.592 : en:02:01:05.592
02:02:32.679 : en:02:02:32.679
02:07:07.578 : en:02:07:07.578

Скриншот c названием фильма

Скриншоты







Последний раз редактировалось: lotto (2016-04-01 03:04), всего редактировалось 3 раз(а)

Создавать темы 25-Мар-2016 06:27

[Профиль]  [ЛС] 

paladin6

Стаж: 3 года 9 месяцев

Сообщений: 13

Симпатии: 4

как давно ждал в качестве, большое спасибо.

Создавать темы 25-Мар-2016 07:02

[Профиль]  [ЛС] 

JaapStam

Стаж: 2 года

Сообщений: 9

Симпатии: 2

Спасибо.

Создавать темы 25-Мар-2016 20:01

[Профиль]  [ЛС] 

Nodir91

Стаж: 4 года 10 месяцев

Сообщений: 51

Симпатии: 1

тут озвучка русская да?

Комментарий от ruhal


Внимательно тех. данные фильма прочитай

Создавать темы 26-Мар-2016 08:28

[Профиль]  [ЛС] 

Nodir91

Стаж: 4 года 10 месяцев

Сообщений: 51

Симпатии: 1

970659тут озвучка русская да?
Комментарий от ruhal
Внимательно тех. данные фильма прочитай
ага спасибо

Создавать темы 26-Мар-2016 11:16

[Профиль]  [ЛС] 

мастер йода

Стаж: 2 года

Сообщений: 18

Симпатии: 1

эй а чё меня не добавили))

Создавать темы 27-Мар-2016 13:58

[Профиль]  [ЛС] 

ivan_jp

Стаж: 3 года 10 месяцев

Сообщений: 8

Симпатии: 3

970802эй а чё меня не добавили))
Ты же умер в оригинальной трилогии.

Создавать темы 28-Мар-2016 22:12

[Профиль]  [ЛС] 

GreenSnake

Стаж: 4 года 6 месяцев

Сообщений: 3

Много рекламы. Раздражает.

Создавать темы 02-Апр-2016 07:03

[Профиль]  [ЛС] 

lotto ®

Стаж: 7 лет 10 месяцев

Сообщений: 221

Симпатии: 409

971330Много рекламы. Раздражает.
В данной версии звук лицензия, рекламы там нет.

Создавать темы 02-Апр-2016 11:16

[Профиль]  [ЛС] 

JustRespectMe

Стаж: 6 лет 10 месяцев

Сообщений: 25

Симпатии: 1

вы перезалили версию, которая вышла 1 апреля? и она без реклам? неделю назад качал эту раздачу, и тут много было рекламы

Создавать темы 02-Апр-2016 15:14

[Профиль]  [ЛС] 

Rikardo

Стаж: 3 года 11 месяцев

Сообщений: 48

Симпатии: 5

Че за шутки? закончил закачку 2 апреля днем. там полно рекламы каждые 25 минут

Создавать темы 03-Апр-2016 11:52

[Профиль]  [ЛС] 

lotto ®

Стаж: 7 лет 10 месяцев

Сообщений: 221

Симпатии: 409

971448Че за шутки? закончил закачку 2 апреля днем. там полно рекламы каждые 25 минут
Похоже старую версию качали. В новом варианте звук лицензия.

Создавать темы 03-Апр-2016 16:05

[Профиль]  [ЛС] 

Godfatherbek

Стаж: 1 год 7 месяцев

Сообщений: 18

Симпатии: 3

дайте скорость

Создавать темы 09-Апр-2016 18:13

[Профиль]  [ЛС] 

sennaa

Стаж: 5 лет 6 месяцев

Сообщений: 54

Симпатии: 1

Спасибо за качество!!!

Создавать темы 26-Мар-2017 12:02

[Профиль]  [ЛС] 
Показать сообщения:    
Ответить на тему

Текущее время: 18-Ноя 22:55

Часовой пояс: UTC + 5



Вы не можете начинать темы
Вы не можете отвечать на сообщения
Вы не можете редактировать свои сообщения
Вы не можете удалять свои сообщения
Вы не можете голосовать в опросах
Вы не можете прикреплять файлы к сообщениям
Вы не можете скачивать файлы