Эссекская вендетта / Essex Vendetta (Терри Ли Кокер / Terry Lee Coker) [2016, Великобритания, Драма, WEB-DLRip] (DVO)

Ответить на тему
 

UZM ®

Стаж: 5 лет 4 месяца

Сообщений: 169

Симпатии: 189

Эссекская вендетта / Essex Vendetta
Страна: Великобритания
Жанр: Драма
Год выпуска: 2016
Продолжительность: 01:29:51
Перевод: Любительский (двухголосый закадровый)
Cубтитры: нет
Режиссер: Терри Ли Кокер / Terry Lee Coker
В ролях: Майкл МакКелл, Крис Джонсон, Данниэлла Уэстбрук, Люсинда Родс-Флаэрти, Пол МакКарти, Эдди Веббер, Тони Лонгхерст, Сидни Ливингстоун, Molly Henderson, Йен Берфилд
Описание: Обычный мужчина - семьянин и работник оказавшись в сложной ситуации решается на немыслимый шаг... И он готов пойти до конца рискуя своей жизнью в противостоянии с криминальным миром...
Качество видео: WEB-DLRip
Формат видео: AVI
Видео: MPEG-4, Xvid 720x400 23.976fps 1854kbps
Аудио: Dolby AC3 48,0Hz stereo 192kbps (русский)
Аудио 2: Dolby AC3 48,0Hz stereo 192kbps

MediaInfo

General
Complete name : D:\Кино\Фильмы 2016\Essex.Vendetta.2016.WEB-DLRip.avi
Format : AVI
Format/Info : Audio Video Interleave
File size : 1.41 GiB
Duration : 1h 29mn
Overall bit rate : 2 252 Kbps
Writing application : VirtualDubMod 1.5.10.3 | www.virtualdub-fr.org || (build 2550/release)
Writing library : VirtualDubMod build 2550/release
Video
ID : 0
Format : MPEG-4 Visual
Format profile : Advanced [email protected]
Format settings, BVOP : 2
Format settings, QPel : No
Format settings, GMC : No warppoints
Format settings, Matrix : Default (H.263)
Codec ID : XVID
Codec ID/Hint : XviD
Duration : 1h 29mn
Bit rate : 1 854 Kbps
Width : 720 pixels
Height : 400 pixels
Display aspect ratio : 16:9
Frame rate : 23.976 fps
Color space : YUV
Chroma subsampling : 4:2:0
Bit depth : 8 bits
Scan type : Progressive
Compression mode : Lossy
Bits/(Pixel*Frame) : 0.269
Stream size : 1.16 GiB (82%)
Writing library : XviD 73
Audio #1
ID : 1
Format : AC-3
Format/Info : Audio Coding 3
Mode extension : CM (complete main)
Format settings, Endianness : Big
Codec ID : 2000
Duration : 1h 29mn
Bit rate mode : Constant
Bit rate : 192 Kbps
Channel(s) : 2 channels
Channel positions : Front: L R
Sampling rate : 48.0 KHz
Compression mode : Lossy
Stream size : 123 MiB (9%)
Alignment : Split accross interleaves
Interleave, duration : 42 ms (1.00 video frame)
Interleave, preload duration : 500 ms
Audio #2
ID : 2
Format : AC-3
Format/Info : Audio Coding 3
Mode extension : CM (complete main)
Format settings, Endianness : Big
Codec ID : 2000
Duration : 1h 29mn
Bit rate mode : Constant
Bit rate : 192 Kbps
Channel(s) : 2 channels
Channel positions : Front: L R
Sampling rate : 48.0 KHz
Compression mode : Lossy
Stream size : 123 MiB (9%)
Alignment : Split accross interleaves
Interleave, duration : 42 ms (1.00 video frame)
Interleave, preload duration : 500 ms

Скриншот c названием фильма

Скриншоты

,
,
,

Создавать темы 25-Мар-2016 07:02

[Профиль]  [ЛС] 

nor_7166

Стаж: 6 лет 9 месяцев

Сообщений: 28

кто смотрел фильм? стоит ли качать? отзовитесь пожалуйсто

Создавать темы 27-Апр-2016 17:16

[Профиль]  [ЛС] 
Показать сообщения:    
Ответить на тему

Текущее время: 20-Окт 03:04

Часовой пояс: UTC + 5



Вы не можете начинать темы
Вы не можете отвечать на сообщения
Вы не можете редактировать свои сообщения
Вы не можете удалять свои сообщения
Вы не можете голосовать в опросах
Вы не можете прикреплять файлы к сообщениям
Вы не можете скачивать файлы