Клан / El Clan (Пабло Траперо / Pablo Trapero) [2015, Аргентина, Испания, триллер, драма, криминал, биография, HDRip] (Dub : [Line])

Ответить на тему
 

kat222000 ®

Стаж: 6 лет 4 месяца

Сообщений: 608

Симпатии: 1055

Клан / El Clan
Страна: Аргентина, Испания
Жанр: триллер, драма, криминал, биография
Год выпуска: 2015
Продолжительность: 01:48:55
Перевод: Профессиональный (дублированный) [Line]
Cубтитры: нет
Режиссер: Пабло Траперо / Pablo Trapero
В ролях: Гильермо Франселья, Питер Ланзани, Лили Попович, Гастон Кокьярале, Жизелль Мотта, Франко Масини, Антония Бенгоэкеа, Стефания Кёсль, Рэймонд Эдвард Ли, Фернандо Миро
Описание: Правдивая история клана Пуччио. Эта семья похищала и убивала людей в 1980-х.
Доп. информация: Релиз без рекламы
Качество видео: HDRip
Формат видео: AVI
Видео: XviD, 1477 Кбит/с, 720x304
Аудио: MP3, 2 ch, 320 Кбит/с

MediaInfo

General
Format : AVI
Format/Info : Audio Video Interleave
File size : 1.37 GiB
Duration : 1h 48mn
Overall bit rate : 1 806 Kbps
Writing application : VirtualDubMod 1.5.10.3 | www.virtualdub-fr.org || (build 2550/release)
Writing library : VirtualDubMod build 2550/release
Video
ID : 0
Format : MPEG-4 Visual
Format profile : Advanced [email protected]
Format settings, BVOP : 2
Format settings, QPel : No
Format settings, GMC : No warppoints
Format settings, Matrix : Custom
Codec ID : XVID
Codec ID/Hint : XviD
Duration : 1h 48mn
Bit rate : 1 406 Kbps
Width : 720 pixels
Height : 304 pixels
Display aspect ratio : 2.35:1
Frame rate : 23.976 fps
Color space : YUV
Chroma subsampling : 4:2:0
Bit depth : 8 bits
Scan type : Progressive
Compression mode : Lossy
Bits/(Pixel*Frame) : 0.268
Stream size : 1.07 GiB (78%)
Writing library : XviD 1.2.1 (UTC 2008-12-04)
Audio
ID : 1
Format : MPEG Audio
Format version : Version 1
Format profile : Layer 3
Mode : Joint stereo
Codec ID : 55
Codec ID/Hint : MP3
Duration : 1h 48mn
Bit rate mode : Constant
Bit rate : 320 Kbps
Channel(s) : 2 channels
Sampling rate : 48.0 KHz
Compression mode : Lossy
Stream size : 248 MiB (18%)
Alignment : Aligned on interleaves

Скриншоты



Создавать темы 25-Мар-2016 22:37

[Профиль]  [ЛС] 
Показать сообщения:    
Ответить на тему

Текущее время: 20-Авг 20:12

Часовой пояс: UTC + 5



Вы не можете начинать темы
Вы не можете отвечать на сообщения
Вы не можете редактировать свои сообщения
Вы не можете удалять свои сообщения
Вы не можете голосовать в опросах
Вы не можете прикреплять файлы к сообщениям
Вы не можете скачивать файлы