Дэдпул / Deadpool (Тим Миллер) [2016, США, Канада, фантастика, боевик, триллер, приключения, комедия, WEBRip 720p] Dub (Чистый звук) + Original (Eng)

Ответить на тему
 

lotto ®

Стаж: 7 лет 10 месяцев

Сообщений: 221

Симпатии: 409

Дэдпул / Deadpool
«Стань свидетелем, как он кончит»
-- Страна: США, Канада
Жанр: фантастика, боевик, триллер, приключения, комедия
Год выпуска: 2016
Продолжительность: 01:47:48
Перевод: Профессиональный (дублированный) Чистый звук
Cубтитры: корейские (хардсаб)
Оригинальная аудиодорожка: английский--Режиссер: Тим Миллер
В ролях: Райан Рейнольдс, Морена Баккарин, Джина Карано, ТиДжей Миллер, Эд Скрейн, Рэйчел Шин, Брианна Хилдебранд, Андре Трикоте, Тэйлор Хиксон, Джед Риис--Описание: Уэйд Уилсон — наёмник. Будучи побочным продуктом программы вооружённых сил под названием «Оружие X», Уилсон приобрёл невероятную силу, проворство и способность к исцелению. Но страшной ценой: его клеточная структура постоянно меняется, а здравомыслие сомнительно. Всё, чего Уилсон хочет, — это держаться на плаву в социальной выгребной яме. Но течение в ней слишком быстрое.-- --Качество видео: WEBRip
Формат видео: MKV
Видео: H264 1280x720 29.97fps 4 461 Kbps
Аудио: AC3 48000Hz stereo 384kbps (русский, дублированный)
Аудио 2: AC3 48000Hz stereo 384kbps (оригинал)

MediaInfo

General
Complete name : DeaDPooLL.2o16.D.WEBRip.720P.mkv
Format : Matroska
Format version : Version 2
File size : 3.94 GiB
Duration : 1h 47mn
Overall bit rate : 5 231 Kbps
Encoded date : UTC 2016-03-25 13:46:18
Writing application : mkvmerge v8.3.0 ('Over the Horizon') 64bit
Writing library : libebml v1.3.1 + libmatroska v1.4.2
Video
ID : 1
Format : AVC
Format/Info : Advanced Video Codec
Format profile : [email protected]
Format settings, CABAC : Yes
Format settings, ReFrames : 2 frames
Codec ID : V_MPEG4/ISO/AVC
Duration : 1h 47mn
Bit rate : 4 461 Kbps
Width : 1 280 pixels
Height : 720 pixels
Display aspect ratio : 16:9
Frame rate mode : Constant
Frame rate : 29.970 (30000/1001) fps
Color space : YUV
Chroma subsampling : 4:2:0
Bit depth : 8 bits
Scan type : Progressive
Bits/(Pixel*Frame) : 0.162
Stream size : 3.36 GiB (85%)
Default : Yes
Forced : No
Audio #1
ID : 2
Format : AC-3
Format/Info : Audio Coding 3
Mode extension : CM (complete main)
Format settings, Endianness : Big
Codec ID : A_AC3
Duration : 1h 47mn
Bit rate mode : Constant
Bit rate : 384 Kbps
Channel(s) : 2 channels
Channel positions : Front: L R
Sampling rate : 48.0 KHz
Frame rate : 31.250 fps (1536 spf)
Compression mode : Lossy
Stream size : 296 MiB (7%)
Language : Russian
Default : Yes
Forced : No
Audio #2
ID : 3
Format : AC-3
Format/Info : Audio Coding 3
Mode extension : CM (complete main)
Format settings, Endianness : Big
Codec ID : A_AC3
Duration : 1h 47mn
Bit rate mode : Constant
Bit rate : 384 Kbps
Channel(s) : 2 channels
Channel positions : Front: L R
Sampling rate : 48.0 KHz
Frame rate : 31.250 fps (1536 spf)
Compression mode : Lossy
Stream size : 296 MiB (7%)
Language : English
Default : No
Forced : No

Скриншот c названием фильма

Скриншоты




Создавать темы 26-Мар-2016 06:50

[Профиль]  [ЛС] 

Топик был перенесен из форума Зарубежное кино в форум HD-AVC
ruhal

Создавать темы 26-Мар-2016 09:07

 

Топик был перенесен из форума HD-AVC в форум HD-AVC
ruhal

Создавать темы 26-Мар-2016 09:07

 

Doc_093

Стаж: 6 лет 9 месяцев

Сообщений: 32

Симпатии: 3

lotto, ваууу крутоооо!! спасибо за релиз))

Создавать темы 26-Мар-2016 11:15

[Профиль]  [ЛС] 

iso77

Стаж: 2 года

Сообщений: 2

Симпатии: 1

без рекламы?

Создавать темы 26-Мар-2016 12:46

[Профиль]  [ЛС] 

paladin6

Стаж: 3 года 9 месяцев

Сообщений: 13

Симпатии: 4

Фильм просто Класс,полный улет.

Создавать темы 26-Мар-2016 21:42

[Профиль]  [ЛС] 

Mr.Blackstar

Стаж: 2 года

Сообщений: 10

Симпатии: 3

Пиратский или нет??????

Создавать темы 26-Мар-2016 23:59

[Профиль]  [ЛС] 

Shaxzodbek

Стаж: 2 года 2 месяца

Сообщений: 7

Симпатии: 47

lotto, Яху спасибо за релиз.
+++++++++++++++++++++++

Создавать темы 27-Мар-2016 16:10

[Профиль]  [ЛС] 

Dez

Стаж: 3 года 11 месяцев

Сообщений: 16

Симпатии: 18

За релиз спасибо! Занятный фильм, вот только рекламы уж слишком много. В определенных моментах вообще ничего не слышно D:

Создавать темы 27-Мар-2016 20:45

[Профиль]  [ЛС] 

s1zer9293

Стаж: 2 года 7 месяцев

Сообщений: 1

Симпатии: 2

дайте скорости pleaseee

Создавать темы 29-Мар-2016 19:59

[Профиль]  [ЛС] 

Shaxzodbek

Стаж: 2 года 2 месяца

Сообщений: 7

Симпатии: 47

Всем привет!
Я уже скачал и посмотрел фильм.
Фильм хороший есть много смешных моментов но я ожидал от него большего.
Спасибо за релиз.

Создавать темы 04-Апр-2016 20:52

[Профиль]  [ЛС] 

for1nt

Стаж: 5 лет 2 месяца

Сообщений: 23

Симпатии: 3

звук авно! можно привыкнуть к субтитрам, но дубляжу который прерывается каждые 5-10 секунд и к джойказино который лезет с рекламой во время диалогов не привыкнуть! 3 минуты и делит. ждем качества

Создавать темы 10-Апр-2016 11:19

[Профиль]  [ЛС] 
Показать сообщения:    
Ответить на тему

Текущее время: 19-Ноя 19:25

Часовой пояс: UTC + 5



Вы не можете начинать темы
Вы не можете отвечать на сообщения
Вы не можете редактировать свои сообщения
Вы не можете удалять свои сообщения
Вы не можете голосовать в опросах
Вы не можете прикреплять файлы к сообщениям
Вы не можете скачивать файлы