Сильнейший в истории ученик / Saikyou no Deshi Kenichi: Yami no Shuugeki (Исиодори Хироси) [OVA] [11 из 11+special] [RUS] [2012, комедия, боевые искусства, этти, 480p]

Ответить на тему
 

Choris ®

Стаж: 2 года 5 месяцев

Сообщений: 61

Симпатии: 54

Сильнейший в истории ученик / Saikyou no Deshi Kenichi: Yami no Shuugeki
--Год выпуска: 2012
Страна: Япония
Жанр: комедия, боевые искусства, этти
Тип: OVA
Продолжительность: 11 эп + спешл по 25 мин--Студия: Brains
Режиссер: Исиодори Хироси--Описание: Прошло какое то время с того, как Кеничи одолел весь Рагнарёк. Он залечил свои раны и вернулся к своей повседневной жизни думая что всё кончилось. Но он и понятия не имеет кто пришел на место Рагнарёка.....--Дополнительная информация: AniDB||WA||MAL
World-Art Rating: 8.4 из 10--Качество: DVDRip
Формат: mp4
Видео: XviD, 854x480 / 720x480, ~1100 Kbps, 23.976 fps
Аудио RUS: AAC, stereo, 48000 Hz, 192 kbps

Media Info

Общее
Полное имя                               : D:\Root\anime\[AniDub]_Shijou_ Saikyou_no_Deshi_Kenichi_[OVA_+_Special]_[Gecep_and_Vel]\[AniDub]_Shijou_ Saikyou_no_Deshi_Kenichi _OVA_[01_из_11]_[480p_x264_AAC]_[Gecep_and_Vel].mp4
Формат                                   : MPEG-4
Профиль формата                          : Base Media
Идентификатор кодека                     : isom (isom/avc1)
Размер файла                             : 214 Мбайт
Продолжительность                        : 27 м.
Режим общего битрейта                    : Переменный
Общий поток                              : 1082 Кбит/сек
Дата кодирования                         : UTC 2015-03-20 09:14:34
Дата пометки                             : UTC 2015-03-20 09:14:34
Видео
Идентификатор                            : 1
Формат                                   : AVC
Формат/Информация                        : Advanced Video Codec
Профиль формата                          : [email protected]
Параметр CABAC формата                   : Да
Параметр ReFrames формата                : 6 кадров
Идентификатор кодека                     : avc1
Идентификатор кодека/Информация          : Advanced Video Coding
Продолжительность                        : 27 м.
Битрейт                                  : 886 Кбит/сек
Максимальный битрейт                     : 6320 Кбит/сек
Ширина                                   : 854 пикселя
Высота                                   : 480 пикселей
Соотношение сторон                       : 16:9
Режим частоты кадров                     : Постоянный
Частота кадров                           : 25,000 кадров/сек
Цветовое пространство                    : YUV
Субдискретизация насыщенности            : 4:2:0
Битовая глубина                          : 8 бит
Тип развёртки                            : Прогрессивная
Бит/(Пиксели*Кадры)                      : 0.086
Размер потока                            : 175 Мбайт (82%)
Библиотека кодирования                   : x264 core 120 r2164 da19765
Настройки программы                      : cabac=1 / ref=6 / deblock=1:1:1 / analyse=0x3:0x113 / me=umh / subme=10 / psy=1 / psy_rd=0.40:0.00 / mixed_ref=1 / me_range=32 / chroma_me=1 / trellis=2 / 8x8dct=1 / cqm=0 / deadzone=21,11 / fast_pskip=1 / chroma_qp_offset=-2 / threads=24 / sliced_threads=0 / nr=0 / decimate=1 / interlaced=0 / bluray_compat=0 / constrained_intra=0 / bframes=5 / b_pyramid=2 / b_adapt=2 / b_bias=0 / direct=1 / weightb=1 / open_gop=0 / weightp=2 / keyint=250 / keyint_min=25 / scenecut=40 / intra_refresh=0 / rc_lookahead=48 / rc=crf / mbtree=1 / crf=17.0 / qcomp=0.60 / qpmin=0 / qpmax=69 / qpstep=4 / ip_ratio=1.40 / aq=1:1.00
Дата кодирования                         : UTC 2015-03-20 09:14:34
Дата пометки                             : UTC 2015-03-20 09:16:26
Аудио
Идентификатор                            : 2
Формат                                   : AAC
Формат/Информация                        : Advanced Audio Codec
Профиль формата                          : LC
Идентификатор кодека                     : 40
Продолжительность                        : 27 м.
Вид битрейта                             : Переменный
Битрейт                                  : 192 Кбит/сек
Максимальный битрейт                     : 196 Кбит/сек
Каналы                                   :  channel0
Channel(s)_Original                      : 2 канала
Расположение каналов                     : Front: L R
Частота                                  : 48,0 КГц
Частота кадров                           : 46,875 кадров/сек (1024 spf)
Метод сжатия                             : С потерями
Размер потока                            : 38,0 Мбайт (18%)
Язык                                     : English
Дата кодирования                         : UTC 2015-03-12 15:15:37
Дата пометки                             : UTC 2015-03-20 09:16:26

Screenshots:

Создавать темы 26-Мар-2016 13:07

[Профиль]  [ЛС] 

RAFA 97

Стаж: 5 лет 7 месяцев

Сообщений: 14

Симпатии: 1

если можно газу добавь!

Создавать темы 16-Мар-2017 02:21

[Профиль]  [ЛС] 
Показать сообщения:    
Ответить на тему

Текущее время: 22-Окт 09:41

Часовой пояс: UTC + 5



Вы не можете начинать темы
Вы не можете отвечать на сообщения
Вы не можете редактировать свои сообщения
Вы не можете удалять свои сообщения
Вы не можете голосовать в опросах
Вы не можете прикреплять файлы к сообщениям
Вы не можете скачивать файлы