Космический полицейский / SPACE COP (Джей Бауман / Jay Bauman) [2016, США, комедия, WEB-DLRip] [Релиз без рекламы!!!] (DVO : [Parovoz Production])

Ответить на тему
 

igor1968 ®

Стаж: 5 лет 6 месяцев

Сообщений: 366

Симпатии: 197

Космический полицейский / SPACE COP Релиз без рекламы!!! Страна:
Жанр: комедия
Год выпуска: 2016
Продолжительность: 01:42:12
Перевод: Любительский (двухголосый закадровый)
Доп. инфо о переводе [Parovoz Production]
Cубтитры: нет
Режиссер: Джей Бауман / Jay Bauman
В ролях: Рич Эванс, Жослин Риджли, Чайк Джонсон, Джей Бауман, Дебора Клифтон, Бо Джонсон
Это история полицейского из будущего пространства, который путешествует назад во времени до настоящего времени и объединился с полицейским из прошлого, который разморожен в настоящее время. Вместе они должны победить злых инопланетян, с зловещим планом.
Доп. информация:
Качество видео: WEB-DLRip
Формат видео: AVI
Видео: Xvid 720x304 24fps
Аудио: Dolby AC3 48000Hz stereo 192kbps

MediaInfo

General
Complete name : D:\Space.Cop.2O16.L2.WEB-DLRip.avi
Format : AVI
Format/Info : Audio Video Interleave
File size : 1.37 GiB
Duration : 1h 42mn
Overall bit rate : 1 918 Kbps
Writing application : VirtualDubMod 1.5.10.3 | www.virtualdub-fr.org || (build 2550/release)
Writing library : VirtualDubMod build 2550/release
Video
ID : 0
Format : MPEG-4 Visual
Format profile : Advanced [email protected]
Format settings, BVOP : 2
Format settings, QPel : No
Format settings, GMC : No warppoints
Format settings, Matrix : Custom
Codec ID : XVID
Codec ID/Hint : XviD
Duration : 1h 42mn
Bit rate : 1 641 Kbps
Width : 720 pixels
Height : 304 pixels
Display aspect ratio : 2.35:1
Frame rate : 24.000 fps
Color space : YUV
Chroma subsampling : 4:2:0
Bit depth : 8 bits
Scan type : Progressive
Compression mode : Lossy
Bits/(Pixel*Frame) : 0.312
Stream size : 1.17 GiB (86%)
Writing library : XviD 1.2.1 (UTC 2008-12-04)
Audio
ID : 1
Format : AC-3
Format/Info : Audio Coding 3
Mode extension : CM (complete main)
Format settings, Endianness : Big
Codec ID : 2000
Duration : 1h 42mn
Bit rate mode : Constant
Bit rate : 192 Kbps
Channel(s) : 2 channels
Channel positions : Front: L R
Sampling rate : 48.0 KHz
Compression mode : Lossy
Stream size : 140 MiB (10%)
Alignment : Split accross interleaves
- - -

Создавать темы 27-Мар-2016 01:32

[Профиль]  [ЛС] 

myxcag

Стаж: 1 год 11 месяцев

Сообщений: 1

как прописывать? у меня уторрент

Создавать темы 28-Мар-2016 22:05

[Профиль]  [ЛС] 

igor1968 ®

Стаж: 5 лет 6 месяцев

Сообщений: 366

Симпатии: 197

970950как прописывать? у меня уторрент

gif



Последний раз редактировалось: igor1968 (2016-03-30 01:29), всего редактировалось 1 раз

Создавать темы 29-Мар-2016 06:49

[Профиль]  [ЛС] 

Evtanazia

Стаж: 2 года 4 месяца

Сообщений: 1

970970
970950как прописывать? у меня уторрент

gif

А если оптика?

Создавать темы 29-Мар-2016 07:43

[Профиль]  [ЛС] 

axeman

Стаж: 4 года 10 месяцев

Сообщений: 380

Симпатии: 50

970975
970970
970950как прописывать? у меня уторрент

gif

А если оптика?
а если старый АДСЛ на которым нет 192,168,1,1

Создавать темы 29-Мар-2016 14:08

[Профиль]  [ЛС] 

igor1968 ®

Стаж: 5 лет 6 месяцев

Сообщений: 366

Симпатии: 197

971005
970975
970970
970950как прописывать? у меня уторрент

gif

А если оптика?
а если старый АДСЛ на которым нет 192,168,1,1
Посмотрите здесь (http://www.tp-link.com/kz/support.html : http://www.tp-linkru.com/) модель сами выберите , прошить на более новое программное обеспечение на ВАШ модем или роутер .


Последний раз редактировалось: igor1968 (2016-03-29 18:13), всего редактировалось 1 раз

Создавать темы 29-Мар-2016 18:07

[Профиль]  [ЛС] 

igor1968 ®

Стаж: 5 лет 6 месяцев

Сообщений: 366

Симпатии: 197

970975
970970
970950как прописывать? у меня уторрент

gif

А если оптика?
ipconfig

Создавать темы 29-Мар-2016 18:08

[Профиль]  [ЛС] 

axeman

Стаж: 4 года 10 месяцев

Сообщений: 380

Симпатии: 50

Посмотрите здесь (http://www.tp-link.com/kz/support.html : http://www.tp-linkru.com/) модель сами выберите , прошить на более новое программное обеспечение на ВАШ модем или роутер .
посмотрел там нет моего модели, хотя покупал на УЗОНЛАЙН 2009 году (только адсл)

Создавать темы 31-Мар-2016 12:12

[Профиль]  [ЛС] 

Андрей Варабей

Стаж: 4 года 6 месяцев

Сообщений: 67

Симпатии: 1

Фильм полное ГАВНО,не побоюсь этого слова,но только по большой накурке можно смотреть,а мы против наркотиков.

Создавать темы 28-Май-2016 18:37

[Профиль]  [ЛС] 

Ромка

Стаж: 1 год 10 месяцев

Сообщений: 20

Симпатии: 2

Поддерживаю,не тратьте свое время.. Это калл!!!

Создавать темы 02-Июн-2016 15:54

[Профиль]  [ЛС] 

Alek$andr

Стаж: 5 лет

Сообщений: 23

Симпатии: 3

Вместе они должны победить злых инопланетян, с зловещим планом
Ведь написано, с "планом". А "зловещий" - это наверно афганский

Создавать темы 03-Июн-2016 16:18

[Профиль]  [ЛС] 
Показать сообщения:    
Ответить на тему

Текущее время: 23-Сен 14:07

Часовой пояс: UTC + 5



Вы не можете начинать темы
Вы не можете отвечать на сообщения
Вы не можете редактировать свои сообщения
Вы не можете удалять свои сообщения
Вы не можете голосовать в опросах
Вы не можете прикреплять файлы к сообщениям
Вы не можете скачивать файлы