Отважная / The Brave One (Нил Джордан/Neil Jordan) [2007, США, Австралия, триллер, драма, криминал, DVDRip] (Dub)

Ответить на тему
 

teddi ®

Стаж: 1 год 4 месяца

Сообщений: 87

Симпатии: 46

Отважная / The Brave One
Страна: США, Австралия
Жанр: триллер, драма, криминал
Год выпуска: 2007
Продолжительность: 02:02:18
Перевод: Профессиональный (дублированный)
Cубтитры: нет
Режиссер: Нил Джордан/Neil Jordan
В ролях: Джоди Фостер, Нэвин Эндрюс, Джейн Адамс, Даг Агирр, Маргарет Бэйкер, Бретт Берг, Анджело Бонсигнор, Майкл Дж. Бёрг, Джек Карузо, Игорь Черкасский, Доминик Чикко, Берн Коэн, Брайан Дилейт, Дэна Эскелсон, Ларри Фесенден, Блэйз Фостер, Дэннис Фанни, Фрэнк Хансен, Анна Маргарет Холлиман, Джернел Ховард
Описание: Для Эрики Бейн улицы Нью-Йорка стали домом и смыслом жизни. Будучи ведущей программы на радиостанции под названием «Прогулки по Нью-Йорку», она делится с радиослушателями звуками, которые слышит в своем любимом городе, и историями, которыми этот город делится с ней.
А вечером она спешит домой к жениху Дейвиду Кирмани, любви всей её жизни. Но однажды ужасной ночью Эрику лишают всего, что ей важно и дорого, что она любит и ценит, когда они с Дейвидом случайно оказываются жертвами вероломного нападения, в ходе которого Дейвида убивают, а Эрика оказывается в критическом состоянии. Хотя изувеченное тело Эрики постепенно приходит в норму, более глубокие раны по-прежнему не дают ей покоя: она чувствует не только горькую пустоту в душе от потери любимого, но и непреодолимый страх, преследующий её каждую минуту. Городские улицы, по которым она некогда любила бродить, места, казавшиеся ей милыми и привычными, теперь внушают лишь страх и ужас.
Доп. информация:
Качество видео: DVDRip
Формат видео: AVI
Видео: Xvid 720x304 23.976fps [V: mpeg4 advanced simple profile, yuv420p, 720x304]
Аудио: Dolby AC3 48000Hz 6ch 384kbps [A: ac3, 48000 Hz, 5.1, 384 kb/s]

MediaInfo

Общее
Полное имя : D:\p2p\in\otvajnaja.avi
Формат : AVI
Формат/Информация : Audio Video Interleave
Размер файла : 1,46 Гбайт
Продолжительность : 2 ч. 2 м.
Общий поток : 1703 Кбит/сек
Программа кодирования : VirtualDubModRus 1.5.10.2 (build 2542/release)
Библиотека кодирования : VirtualDubMod build 2542/release
Видео
Идентификатор : 0
Формат : MPEG-4 Visual
Профиль формата : Advanced [email protected]
Параметр BVOP формата : 1
Параметр QPel формата : Нет
Параметр GMC формата : Без точки перехода
Параметр матрицы формата : Выборочная
Идентификатор кодека : XVID
Идентификатор кодека/Подсказка : XviD
Продолжительность : 2 ч. 2 м.
Битрейт : 1310 Кбит/сек
Ширина : 720 пикселей
Высота : 304 пикселя
Соотношение сторон : 2,35:1
Частота кадров : 23,976 (23976/1000) кадра/сек
Цветовое пространство : YUV
Субдискретизация насыщенности : 4:2:0
Битовая глубина : 8 бит
Тип развёртки : Прогрессивная
Метод сжатия : С потерями
Бит/(Пиксели*Кадры) : 0.250
Размер потока : 1,12 Гбайт (77%)
Библиотека кодирования : XviD 1.2.1 (UTC 2008-12-04)
Аудио
Идентификатор : 1
Формат : AC-3
Формат/Информация : Audio Coding 3
Расширение режима : CM (complete main)
Параметр Endianness формата : Big
Идентификатор кодека : 2000
Продолжительность : 2 ч. 2 м.
Вид битрейта : Постоянный
Битрейт : 384 Кбит/сек
Каналы : 6 каналов
Расположение каналов : Front: L C R, Side: L R, LFE
Частота : 48,0 КГц
Частота кадров : 31,250 кадров/сек (1536 spf)
Метод сжатия : С потерями
Размер потока : 336 Мбайт (23%)
Выравнивание : Разделение по промежуткам
Продолжительность промежутка : 42 мс. (1,00 видеокадр)
Время предзагрузки промежутка : 500 мс.

Скриншот c названием фильма

Скриншоты

Создавать темы 27-Мар-2016 02:58

[Профиль]  [ЛС] 
Показать сообщения:    
Ответить на тему

Текущее время: 17-Авг 16:49

Часовой пояс: UTC + 5



Вы не можете начинать темы
Вы не можете отвечать на сообщения
Вы не можете редактировать свои сообщения
Вы не можете удалять свои сообщения
Вы не можете голосовать в опросах
Вы не можете прикреплять файлы к сообщениям
Вы не можете скачивать файлы