Война и мир / War & Peace / Сезон: 1 Полный / Серии: 1-6 из 6 (Том Харпер) [2016, драма, WEB-DLRip] (MVO : LostFilm) (Original)

Ответить на тему
 

mwisdom ®

Стаж: 1 год 11 месяцев

Сообщений: 9

Симпатии: 9

Год выпуска: 2016
Страна: Великобритания
Жанр: драма
Продолжительность: 00:59:36
Перевод: Профессиональный многоголосый закадровый
Доп. инфо о переводе: LostFilm
Русские субтитры: нет

Режиссёр:

Том Харпер
В ролях: Пол Дано (Пьер Безухов), Джеймс Нортон (Андрей Болконский), Лили Джеймс (Наташа Ростова), Эдриен Эдмондсон (граф Илья Ростов), Джек Лауден (Николай Ростов), Таппенс Миддлтон (Элен Безухова), Каллам Тернер (Анатоль Курагин), Джесси Бакли (Марья Болконская), Том Берк (Федор Долохов), Джим Бродбент (князь Николай Болконский), Матье Кассовитц (Наполеон Бонапарт), Брайан Кокс (генерал Михаил Кутузов), Джиллиан Андерсон (Анна Павловна Шерер).Описание: Россия, 1805 год. Благородные аристократы погрязли в праздности, давно оторвались от собственного народа и даже предпочли французский родному языку. Высший свет с его пышными балами и блестящими приемами, на которых строятся козни и распространяются сплетни, представлен в лице знатной дамы Анны Павловны Шерер. В ее салон наведывается князь Василий Курагин, пытающийся выгодно пристроить своих развращенных и избалованных детей — обольстительную красавицу Элен и легкомысленного кутилу Анатоля. Туда же прибывает добродушный и доверчивый Пьер — единственный наследник одного из богатейших графов империи, Кирилла Безухова, за состояние которого вскоре разгорается подковерная битва. Между тем, уставший от светского лицемерия и череды бессмысленных развлечений князь Андрей Болконский оставляет беременную жену на попечение добродетельной сестрицы Марьи и сварливого отца Николая Андреевича, а сам отправляется на фронт. Но никто из них, включая большую дружную семью Ростовых, в которой растет полная энергии девушка Наташа, не подозревает, как сильно внезапная война с Наполеоном изменит их беззаботные жизни, привычный уклад и личные ценности. Жестокие потери и ужасающие смерти встанут на пути к их истинному счастью…
Доп. информация: «Война и мир» — экранизация монументального одноименного романа-эпопеи Льва Николаевича Толстого, производством которой занимался британский канал BBC, подаривший зрителям такие хиты «классики на новый лад», как «Шерлок» (Sherlock) и «Мушкетеры» (The Musketeers). В новом творении ветерана телевидения, сценариста Эндрю Дэвиса, акцент сделан на интриги в отношениях персонажей, зрелищные батальные сцены, аутентичные интерьеры (сериал снимался в том числе в старинных русских дворцах и усадьбах), а также на точное воспроизведение эпохи — от расшитых вручную костюмов до манеры поведения героев. Вкупе с проникновенной игрой актеров это сделало современную версию «Войны и мира» увлекательной и глубокой историей, которая придется по душе как страстным почитателям романа, так и совершенно не знакомой с оригиналом публике.
Качество: WEB-DLRip
Формат: MKV
Видео кодек: H.264
Аудио кодек: AC3
Видео: 1920x1080 25fps 6012 kbps
Аудио: Dolby AC3 48000Hz stereo 384kbps Русский
Аудио 2: Dolby AC3 48000Hz stereo 384kbps Английский

MediaInfo

General
Format : Matroska
Format version : Version 4 / Version 2
File size : 2.48 GiB
Duration : 58mn 59s
Overall bit rate : 6 012 Kbps
Encoded date : UTC 2016-03-13 11:14:17
Writing application : mkvmerge v8.8.0 ('Wind at my back') 64bit
Writing library : libebml v1.3.3 + libmatroska v1.4.4
Video
ID : 1
Format : AVC
Format/Info : Advanced Video Codec
Format profile : [email protected]
Format settings, CABAC : Yes
Format settings, ReFrames : 2 frames
Codec ID : V_MPEG4/ISO/AVC
Duration : 58mn 59s
Bit rate : 5 242 Kbps
Width : 1 920 pixels
Height : 1 080 pixels
Display aspect ratio : 16:9
Frame rate mode : Constant
Frame rate : 25.000 fps
Color space : YUV
Chroma subsampling : 4:2:0
Bit depth : 8 bits
Scan type : Progressive
Bits/(Pixel*Frame) : 0.101
Stream size : 2.16 GiB (87%)
Writing library : x264 core 112 r1834 a51816a
Default : Yes
Forced : No
Audio #1
ID : 2
Format : AC-3
Format/Info : Audio Coding 3
Mode extension : CM (complete main)
Format settings, Endianness : Big
Codec ID : A_AC3
Duration : 58mn 59s
Bit rate mode : Constant
Bit rate : 384 Kbps
Channel(s) : 2 channels
Channel positions : Front: L R
Sampling rate : 48.0 KHz
Frame rate : 31.250 fps (1536 spf)
Compression mode : Lossy
Stream size : 162 MiB (6%)
Default : Yes
Forced : No
Audio #2
ID : 3
Format : AC-3
Format/Info : Audio Coding 3
Mode extension : CM (complete main)
Format settings, Endianness : Big
Codec ID : A_AC3
Duration : 58mn 59s
Bit rate mode : Constant
Bit rate : 384 Kbps
Channel(s) : 2 channels
Channel positions : Front: L R
Sampling rate : 48.0 KHz
Frame rate : 31.250 fps (1536 spf)
Compression mode : Lossy
Stream size : 162 MiB (6%)
Default : No
Forced : No

Скриншоты







Последний раз редактировалось: mwisdom (2016-03-27 04:35), всего редактировалось 12 раз(а)

Создавать темы 27-Мар-2016 03:26

[Профиль]  [ЛС] 

mwisdom ®

Стаж: 1 год 11 месяцев

Сообщений: 9

Симпатии: 9

Создавать темы 27-Мар-2016 03:38

[Профиль]  [ЛС] 

mwisdom ®

Стаж: 1 год 11 месяцев

Сообщений: 9

Симпатии: 9

Смотрите фильмы в качестве!!!

Создавать темы 27-Мар-2016 03:49

[Профиль]  [ЛС] 

Rst

Стаж: 6 лет 10 месяцев

Сообщений: 38

Симпатии: 1

970773
раздача куда пропала?до конца до веди дело теперь! с раздачи не уйду

Создавать темы 14-Май-2016 20:09

[Профиль]  [ЛС] 
Показать сообщения:    
Ответить на тему

Текущее время: 21-Окт 15:34

Часовой пояс: UTC + 5



Вы не можете начинать темы
Вы не можете отвечать на сообщения
Вы не можете редактировать свои сообщения
Вы не можете удалять свои сообщения
Вы не можете голосовать в опросах
Вы не можете прикреплять файлы к сообщениям
Вы не можете скачивать файлы