Невыносимая жестокость / Intolerable Cruelty (Джоэл Коэн, Итан Коэн/Joel Coen, Ethan Coen) [2003, США, мелодрама, комедия, криминал, HDRip] (Dub)

Ответить на тему
 

teddi ®

Стаж: 1 год 4 месяца

Сообщений: 87

Симпатии: 46

Невыносимая жестокость / Intolerable Cruelty
Страна: США
Жанр: мелодрама, комедия, криминал
Год выпуска: 2003
Продолжительность: 01:38:29
Перевод: Профессиональный (дублированный)
Cубтитры: нет
Режиссер: Джоэл Коэн, Итан Коэн/Joel Coen, Ethan Coen
В ролях: Джордж Клуни , Кэтрин Зета-Джонс , Джеффри Раш , Седрик «Развлекатель» , Эдвард Херрманн , Пол Адельштейн , Ричард Дженкинс , Билли Боб Торнтон , Джулия Даффи , Джонатан Хэдари , Том Элдридж , Стэйси Трэвис
Описание: У знаменитого адвоката Майлза Масси есть все — слава, деньги, благодарная клиентура и брачный контракт, названный в его честь. Но Майлз чувствует, что ему не хватает поединка с достойным врагом. Судьба сводит его с соблазнительной Мэрилин Рексрот, брачной аферисткой, которая собирается развестись с его клиентом и при этом значительно пополнить свой банковский счет.
И пусть в этот раз ей не повезло — она тут же находит новую жертву, нефтяного магната Дойла, и начинает игру, в которой Майлзу придется еще не раз удивляться…
Качество видео: HDRip
Формат видео: AVI
Видео: Xvid 688x368 23.976fps [V: mpeg4 advanced simple profile, yuv420p, 688x368]
Аудио: MP3 48000Hz stereo 128kbps [A: mp3, 48000 Hz, stereo, 128 kb/s]

MediaInfo

Общее
Полное имя : D:\p2p\in\Intolerable Cruelty.(2003).HDRip.avi
Формат : AVI
Формат/Информация : Audio Video Interleave
Размер файла : 745 Мбайт
Продолжительность : 1 ч. 38 м.
Общий поток : 1057 Кбит/сек
Программа кодирования : VirtualDubMod 1.5.10.2 (build 2542/release)
Библиотека кодирования : VirtualDubMod build 2542/release
Видео
Идентификатор : 0
Формат : MPEG-4 Visual
Профиль формата : Advanced [email protected]
Параметр BVOP формата : 1
Параметр QPel формата : Нет
Параметр GMC формата : Без точки перехода
Параметр матрицы формата : Default (MPEG)
Идентификатор кодека : XVID
Идентификатор кодека/Подсказка : XviD
Продолжительность : 1 ч. 38 м.
Битрейт : 920 Кбит/сек
Ширина : 688 пикселей
Высота : 368 пикселей
Соотношение сторон : 1,85:1
Частота кадров : 23,976 (23976/1000) кадра/сек
Цветовое пространство : YUV
Субдискретизация насыщенности : 4:2:0
Битовая глубина : 8 бит
Тип развёртки : Прогрессивная
Метод сжатия : С потерями
Бит/(Пиксели*Кадры) : 0.152
Размер потока : 648 Мбайт (87%)
Библиотека кодирования : XviD 1.2.1 (UTC 2008-12-04)
Аудио
Идентификатор : 1
Формат : MPEG Audio
Версия формата : Version 1
Профиль формата : Layer 3
Режим : Joint stereo
Расширение режима : MS Stereo
Идентификатор кодека : 55
Идентификатор кодека/Подсказка : MP3
Продолжительность : 1 ч. 38 м.
Вид битрейта : Постоянный
Битрейт : 128 Кбит/сек
Каналы : 2 канала
Частота : 48,0 КГц
Метод сжатия : С потерями
Размер потока : 90,2 Мбайт (12%)
Выравнивание : Соединение по промежуткам
Продолжительность промежутка : 42 мс. (1,00 видеокадр)
Время предзагрузки промежутка : 504 мс.

Скриншот c названием фильма

Скриншоты

Создавать темы 27-Мар-2016 04:54

[Профиль]  [ЛС] 

kat222000

Стаж: 6 лет 4 месяца

Сообщений: 608

Симпатии: 1055

teddi, здравтсвуйте! Вы бы лучше встали на существующую раздачу, http://185.8.212.231/viewtopic.php?t=58654, чем создавать новую идентичную той, что уже есть на трекере! Один релиз придётся поглатить!

Создавать темы 27-Мар-2016 06:46

[Профиль]  [ЛС] 

teddi ®

Стаж: 1 год 4 месяца

Сообщений: 87

Симпатии: 46

970777
teddi, здравтсвуйте! Вы бы лучше встали на существующую раздачу, http://185.8.212.231/viewtopic.php?t=58654, чем создавать новую идентичную той, что уже есть на трекере! Один релиз придётся поглатить!
Конечно, можно было бы и так сделать, но ведь той раздаче уже более 3 лет и к ней точно никто не возвратится. Скачали тогда всего 4 раза. И если я туда добавлюсь, так никто и не будет ее качать. Дэдпулов вон кучу наплодили и вроде ничего... aa

Комментарий от kat222000


Хорошо, оставляем Вашу раздачу, а ту в плавание!

Создавать темы 27-Мар-2016 07:26

[Профиль]  [ЛС] 

shuh2004

Стаж: 5 лет 8 месяцев

Сообщений: 41

Симпатии: 8

Кэтрин Зета-Джонс !

Создавать темы 02-Апр-2016 18:43

[Профиль]  [ЛС] 

teddi ®

Стаж: 1 год 4 месяца

Сообщений: 87

Симпатии: 46

shuh2004,
Меня тут больше всего игра Джорджа Клуни приколола, особенно мимика его лица ;)

Создавать темы 02-Апр-2016 18:59

[Профиль]  [ЛС] 
Показать сообщения:    
Ответить на тему

Текущее время: 17-Авг 01:02

Часовой пояс: UTC + 5



Вы не можете начинать темы
Вы не можете отвечать на сообщения
Вы не можете редактировать свои сообщения
Вы не можете удалять свои сообщения
Вы не можете голосовать в опросах
Вы не можете прикреплять файлы к сообщениям
Вы не можете скачивать файлы