Запомните меня такой (Павел Чухрай) [1987, Драма, DVDRip]

Ответить на тему
 

lotto ®

Стаж: 7 лет 10 месяцев

Сообщений: 221

Симпатии: 409

Запомните меня такой -- Жанр: Драма
Год выпуска: 1987
Продолжительность: 02:18:06--Режиссёр: Павел Чухрай
В ролях: Ангелина Степанова, Олег Борисов, Ия Саввина, Елена Проклова, Елена Финогеева, Людмила Аринина, Антон Андросов, Александра Колкунова, Михаил Глузский, Людмила Давыдова (Шляхтур), Галина Демина, Наталья Саакянц, Нина Ургант--Описание: По мотивам пьесы Романа Солнцева "Мать и сын".
Несколько поколений одной семьи предстают перед нами в этой картине. В центре кинодрамы - женщина, чья молодость пришлась на 30-е годы. Жизнь практически не изменила ее принципов и убеждений. И непонятны ей дети, а тем более внуки, для которых ее идеалы уже ничего не значат...-- --

Доп. информация

Уникальное кино c пророческим видением.
Качество видео: DVDRip
Формат видео: AVI
Видео: Xvid 704x512 25fps 1252kbps
Аудио: AC3 48000Hz stereo 192kbps

MediaInfo

General
Complete name : Zapomnite.menja.takoj.(2.serii.iz.2.)1987.XviD.DVDRip.kinozal.tv\Zapomnite.menja.takoj.(2.serija.iz.2.)1987.XviD.DVDRip.kinozal.tv.avi
Format : AVI
Format/Info : Audio Video Interleave
File size : 702 MiB
Duration : 1h 7mn
Overall bit rate : 1 455 Kbps
Writing application : VirtualDubMod 1.5.10.2 (build 2540/release)
Writing library : VirtualDubMod build 2540/release
Video
ID : 0
Format : MPEG-4 Visual
Format profile : Advanced [email protected]
Format settings, BVOP : 1
Format settings, QPel : No
Format settings, GMC : No warppoints
Format settings, Matrix : Default (MPEG)
Codec ID : XVID
Codec ID/Hint : XviD
Duration : 1h 7mn
Bit rate : 1 253 Kbps
Width : 704 pixels
Height : 512 pixels
Display aspect ratio : 1.375
Frame rate : 25.000 fps
Color space : YUV
Chroma subsampling : 4:2:0
Bit depth : 8 bits
Scan type : Progressive
Compression mode : Lossy
Bits/(Pixel*Frame) : 0.139
Stream size : 604 MiB (86%)
Writing library : XviD 1.2.0.dev47 (UTC 2006-11-01)
Audio
ID : 1
Format : AC-3
Format/Info : Audio Coding 3
Mode extension : CM (complete main)
Format settings, Endianness : Big
Codec ID : 2000
Duration : 1h 7mn
Bit rate mode : Constant
Bit rate : 192 Kbps
Channel(s) : 2 channels
Channel positions : Front: L R
Sampling rate : 48.0 KHz
Frame rate : 31.250 fps (1536 spf)
Compression mode : Lossy
Stream size : 92.6 MiB (13%)
Alignment : Split accross interleaves
Interleave, duration : 40 ms (1.00 video frame)
Interleave, preload duration : 500 ms

Скриншот c названием фильма

Скриншоты






Создавать темы 27-Мар-2016 16:12

[Профиль]  [ЛС] 
Показать сообщения:    
Ответить на тему

Текущее время: 19-Ноя 17:03

Часовой пояс: UTC + 5



Вы не можете начинать темы
Вы не можете отвечать на сообщения
Вы не можете редактировать свои сообщения
Вы не можете удалять свои сообщения
Вы не можете голосовать в опросах
Вы не можете прикреплять файлы к сообщениям
Вы не можете скачивать файлы