Хакерские войны / The Hacker Wars (Вивьен Лесник Вейсман) [2014, США, Документальный, криминал, WEB-DLRip] DVO

Ответить на тему
 

lotto ®

Стаж: 7 лет 9 месяцев

Сообщений: 221

Симпатии: 409

Хакерские войны / The Hacker Wars-- Страна: США
Жанр: Документальный, криминал
Год выпуска: 2014
Продолжительность: 01:31:18
Перевод: Любительский (двухголосый закадровый)
Cубтитры: нет--Режиссер: Вивьен Лесник Вейсман
В ролях: Эндрю Блейк, Баррет Браун, Томас Дрэйк, Гленн Гринвальд, Джереми Хэммонд, Кристофер Хеджес, Грегг Хауш--Описание: После длительной подготовки ФБР смогла нанести ощутимый удар по мощной хакерской группе Anonymous, предъявив обвинения её лидерам по уголовным статьям. Однако сами хакеры уверены, что подвергаются политическим преследованиям со стороны государства. Хакерские атаки группы Anonymous наводят страх на крупные компании, банки и учреждения. Государство объявило им войну — а они открыто заявляют, что настоящую угрозу обществу несёт правящая элита, которой хакеры мешают установить тотальный контроль над миром.-- --Качество видео: WEB-DLRip
Формат видео: AVI
Видео: XviD, 1741 Кбит/с, 720x400
Аудио: AC3, 2 ch, 384 Кбит/с (русский, двухголосый)

MediaInfo

General
Complete name : The.Hacker.Wars.2014.WEB-DLRip.avi
Format : AVI
Format/Info : Audio Video Interleave
File size : 1.36 GiB
Duration : 1h 31mn
Overall bit rate : 2 126 Kbps
Video
ID : 0
Format : MPEG-4 Visual
Format profile : Advanced [email protected]
Format settings, BVOP : 2
Format settings, QPel : No
Format settings, GMC : No warppoints
Format settings, Matrix : Default (H.263)
Codec ID : XVID
Codec ID/Hint : XviD
Duration : 1h 31mn
Bit rate : 1 742 Kbps
Width : 720 pixels
Height : 400 pixels
Display aspect ratio : 16:9
Frame rate : 23.976 (24000/1001) fps
Color space : YUV
Chroma subsampling : 4:2:0
Bit depth : bit0
Scan type : Progressive
Compression mode : Lossy
Bits/(Pixel*Frame) : 0.252
Stream size : 1.11 GiB (82%)
Writing library : XviD 1.2.1 (UTC 2008-12-04)
Audio
ID : 1
Format : AC-3
Format/Info : Audio Coding 3
Mode extension : CM (complete main)
Format settings, Endianness : Big
Codec ID : 2000
Duration : 1h 31mn
Source duration : 1h 31mn
Bit rate mode : Constant
Bit rate : 384 Kbps
Channel(s) : 2 channels
Channel positions : Front: L R
Sampling rate : 48.0 KHz
Frame rate : 31.250 fps (1536 spf)
Compression mode : Lossy
Stream size : 251 MiB (18%)
Alignment : Aligned on interleaves
Interleave, duration : 42 ms (1.00 video frame)

Скриншот c названием фильма

Скриншоты





Создавать темы 27-Мар-2016 17:56

[Профиль]  [ЛС] 
Показать сообщения:    
Ответить на тему

Текущее время: 22-Окт 03:52

Часовой пояс: UTC + 5



Вы не можете начинать темы
Вы не можете отвечать на сообщения
Вы не можете редактировать свои сообщения
Вы не можете удалять свои сообщения
Вы не можете голосовать в опросах
Вы не можете прикреплять файлы к сообщениям
Вы не можете скачивать файлы