Разборка в Маниле / Showdown in Manila (Марк Дакаскос / Mark Dacascos) [2016, США, Россия, Боевик, WEB-DL 720p] (Dub : iTunes)

Ответить на тему
 

UZM ®

Стаж: 5 лет 6 месяцев

Сообщений: 169

Симпатии: 189

Разборка в Маниле / Showdown in Manila
Страна: США, Россия
Жанр: Боевик
Год выпуска: 2016
Продолжительность: 01:25:57
Перевод: Профессиональный (дублированный) Доп. инфо о переводе iTunes
Cубтитры: нет
Режиссер: Марк Дакаскос / Mark Dacascos
В ролях: Александр Невский, Каспер Ван Дин, Кэри-Хироюки Тагава, Марк Дакаскос, Маттиас Хьюз, Синтия Ротрок, Дон «Дракон» Уилсон, Оливье Грюнер, Джейк Макапагал, Иса Кальсадо
Описание: Частные детективы Ник и Чарли живут и работают в Маниле. Расследование убийства выводит их на след международного террориста по кличке «Призрак», лагерь которого находится в филиппинских джунглях. Не доверяя полиции, Ник и Чарли собирают небольшую команду смельчаков и отправляются в логово «Призрака», которое охраняет армия наемников-головорезов...
Качество видео: WEB-DL 720p
Формат видео: MKV
Видео: MPEG4, Video (H264) 1024x540 25fps
Аудио: Dolby AC3 48,0Hz 6ch 384kbps

MediaInfo

General
Unique ID : 180824966695378338998244959232975295991 (0x88099F2E9F3BE206ACDF52557309D5F7)
Complete name : D:\Кино\Разборка в Маниле.2016 (реж.М.Дакаскос).nnm-club.mkv
Format : Matroska
Format version : Version 2
File size : 1.45 GiB
Duration : 1h 25mn
Overall bit rate : 2 419 Kbps
Encoded date : UTC 2016-03-21 08:40:25
Writing application : mkvmerge v5.3.0 ('I could have danced') built on Feb 9 2012 10:38:07
Writing library : libebml v1.2.3 + libmatroska v1.3.0
Attachements : poster.jpg
Video
ID : 1
Format : AVC
Format/Info : Advanced Video Codec
Format profile : [email protected]
Format settings, CABAC : Yes
Format settings, ReFrames : 9 frames
Codec ID : V_MPEG4/ISO/AVC
Duration : 1h 25mn
Bit rate : 2 034 Kbps
Width : 1 024 pixels
Height : 540 pixels
Display aspect ratio : 1.896
Frame rate mode : Constant
Frame rate : 25.000 fps
Color space : YUV
Chroma subsampling : 4:2:0
Bit depth : 8 bits
Scan type : Progressive
Bits/(Pixel*Frame) : 0.147
Stream size : 1.19 GiB (82%)
Writing library : x264 core 146 r2538 121396c
Encoding settings : cabac=1 / ref=9 / deblock=1:-3:-3 / analyse=0x3:0x133 / me=umh / subme=10 / psy=1 / psy_rd=1.10:0.05 / mixed_ref=1 / me_range=32 / chroma_me=1 / trellis=2 / 8x8dct=1 / cqm=0 / deadzone=21,11 / fast_pskip=0 / chroma_qp_offset=-3 / threads=12 / lookahead_threads=2 / sliced_threads=0 / nr=0 / decimate=1 / interlaced=0 / bluray_compat=0 / constrained_intra=0 / bframes=8 / b_pyramid=2 / b_adapt=2 / b_bias=0 / direct=3 / weightb=1 / open_gop=0 / weightp=2 / keyint=240 / keyint_min=23 / scenecut=40 / intra_refresh=0 / rc=2pass / mbtree=0 / bitrate=2034 / ratetol=1.0 / qcomp=0.60 / qpmin=0 / qpmax=69 / qpstep=4 / cplxblur=20.0 / qblur=0.5 / ip_ratio=1.40 / pb_ratio=1.30 / aq=3:0.70
Default : Yes
Forced : No
Audio
ID : 2
Format : AC-3
Format/Info : Audio Coding 3
Mode extension : CM (complete main)
Format settings, Endianness : Big
Codec ID : A_AC3
Duration : 1h 25mn
Bit rate mode : Constant
Bit rate : 384 Kbps
Channel(s) : 6 channels
Channel positions : Front: L C R, Side: L R, LFE
Sampling rate : 48.0 KHz
Compression mode : Lossy
Stream size : 236 MiB (16%)
Default : Yes
Forced : No

Скриншот c названием фильма

Скриншоты

,
,
,


Последний раз редактировалось: UZM (2016-03-27 20:19), всего редактировалось 1 раз

Создавать темы 27-Мар-2016 20:12

[Профиль]  [ЛС] 

Топик был перенесен из форума Фильмы за 2016 в форум HD-AVC
ruhal

Создавать темы 27-Мар-2016 20:19

 

ziyod

Стаж: 7 лет 9 месяцев

Сообщений: 367

Симпатии: 60

Что это, новые "Неудержимые"?))

Создавать темы 28-Мар-2016 10:53

[Профиль]  [ЛС] 

UZM ®

Стаж: 5 лет 6 месяцев

Сообщений: 169

Симпатии: 189

В роде таво...

Создавать темы 28-Мар-2016 13:59

[Профиль]  [ЛС] 

killer_said

Стаж: 6 лет 10 месяцев

Сообщений: 183

Симпатии: 54

Си.... детектед качаем

Создавать темы 09-Апр-2016 21:01

[Профиль]  [ЛС] 
Показать сообщения:    
Ответить на тему

Текущее время: 16-Дек 15:51

Часовой пояс: UTC + 5



Вы не можете начинать темы
Вы не можете отвечать на сообщения
Вы не можете редактировать свои сообщения
Вы не можете удалять свои сообщения
Вы не можете голосовать в опросах
Вы не можете прикреплять файлы к сообщениям
Вы не можете скачивать файлы