Двадцать шесть дней из жизни Достоевского (Александр Зархи) [1980, мелодрама, биография, DVDRip]

Ответить на тему
 

lotto ®

Стаж: 7 лет 7 месяцев

Сообщений: 221

Симпатии: 409

Двадцать шесть дней из жизни Достоевского-- Жанр: мелодрама, биография
Год выпуска: 1980
Продолжительность: 01:17:55--Режиссёр: Александр Зархи
В ролях: Евгения Симонова, Анатолий Солоницын, Эва Шикульска, Евгений Дворжецкий, Николай Денисов, Юрий Катин-Ярцев, Татьяна Бабанина, В. Климов, Елена Кононенко, Юрий Комаров--Описание: Осень 1866 года. Великий Достоевский, находящийся под надзором полиции, в ужасном положении: менее чем за месяц он должен завершить роман «Игрок», в противном же случае он на многие годы попадет в кабалу к издателю.
В эти дни судьба сводит Достоевского с юной Анной Сниткиной, которая становится добрым гением писателя, его помощницей, спасительницей, женой.-- --Качество видео: DVDRip
Формат видео: AVI
Видео: Xvid 720x544 25fps 1999kbps
Аудио: MP3 48000Hz stereo 192kbps

Цитата из фильма

- Тот, кто требует от другого всего, а себя освобождает от обязательств, тот никогда не будет счастлив.

MediaInfo

General
Complete name : 26 dnej iz zhizni Dostoevskogo.avi
Format : AVI
Format/Info : Audio Video Interleave
File size : 1.20 GiB
Duration : 1h 17mn
Overall bit rate : 2 201 Kbps
Writing library : VirtualDub build 28225/release
Video
ID : 0
Format : MPEG-4 Visual
Format profile : [email protected]
Format settings, BVOP : No
Format settings, QPel : No
Format settings, GMC : No warppoints
Format settings, Matrix : Default (H.263)
Codec ID : XVID
Codec ID/Hint : XviD
Duration : 1h 17mn
Bit rate : 1 999 Kbps
Width : 720 pixels
Height : 544 pixels
Display aspect ratio : 4:3
Frame rate : 25.000 fps
Color space : YUV
Chroma subsampling : 4:2:0
Bit depth : 8 bits
Scan type : Progressive
Compression mode : Lossy
Bits/(Pixel*Frame) : 0.204
Stream size : 1.09 GiB (91%)
Writing library : XviD 1.1.0 Beta2 (UTC 2005-04-04)
Audio
ID : 1
Format : MPEG Audio
Format version : Version 1
Format profile : Layer 3
Mode : Joint stereo
Codec ID : 55
Codec ID/Hint : MP3
Duration : 1h 17mn
Bit rate mode : Constant
Bit rate : 192 Kbps
Channel(s) : 2 channels
Sampling rate : 48.0 KHz
Compression mode : Lossy
Stream size : 107 MiB (9%)
Alignment : Split accross interleaves
Interleave, duration : 40 ms (1.00 video frame)
Interleave, preload duration : 1000 ms

Скриншот c названием фильма

Скриншоты





Создавать темы 28-Мар-2016 14:44

[Профиль]  [ЛС] 

IceWolf

Стаж: 7 лет 7 месяцев

Сообщений: 21

помогите скачать!!!

Создавать темы 29-Янв-2017 07:16

[Профиль]  [ЛС] 
Показать сообщения:    
Ответить на тему

Текущее время: 19-Авг 23:47

Часовой пояс: UTC + 5



Вы не можете начинать темы
Вы не можете отвечать на сообщения
Вы не можете редактировать свои сообщения
Вы не можете удалять свои сообщения
Вы не можете голосовать в опросах
Вы не можете прикреплять файлы к сообщениям
Вы не можете скачивать файлы