Заложница 2 / Taken 2 (Оливье Мегатон / Olivier Megaton) [2012, Франция, триллер, боевик, BDRip-AVC / 60fps] (Dub) (Sub Rus Eng)

Ответить на тему
 

akmstudio ®

Стаж: 7 лет 10 месяцев

Сообщений: 38

Симпатии: 31

Заложница 2 / Taken 2
Страна: Франция
Жанр: Триллер, боевик
Год выпуска: 2012
Продолжительность: 01:38:18
Перевод: Профессиональный (дублированный)
Cубтитры: русские (Форсированные), русские (Полные), английские (Полные)
Режиссер: Оливье Мегатон / Olivier Megaton
В ролях: Лиам Нисон (Bryan Mills), Мэгги Грэйс (Kim), Фамке Янссен (Lenore), Лиленд Орсер (Sam), Джон Грайз (Casey), Д.Б. Суини (Bernie), Люк Граймс (Jamie), Раде Шербеджия (Murad Krasniqi), Кеворк Маликян (Inspector Durmaz), Ален Фиглаж (Suko), Франк Альварес (Car Wash Attendant), Мурат Тунселли (Custom Officer Albania)
Описание: Брайану Миллсу придется расхлебывать последствия своих действий. Спасая свою дочь, он убил главаря банды, у которого - сюрприз! - есть отец по имени Мурад. Мурад жаждет отмщения, и описывается как человек, отдающий приказы, но сам никогда никому не подчиняющийся. Мурад берет в заложники Миллса с супругой, и тут уже Ким Миллс нужно будет спасать своих родителей.
Качество: BDRip-AVC 60fps
Формат: MKV
Видео кодек: AVC
Аудио кодек:AC3
Видео: AVC, 1024x432 (2.35:1), 4000 kbps, 59,940 fps, 0,151 bpp
Аудио: русский / AC3 / 5.1 / 48 kHz / 640 kbps / 16 bit |Дубляж + Форсированные субтитры на непереведенные места|
Навигация по главам: есть

MediaInfo

General
Unique ID : 194460381325770474916435368614575774291 (0x924BB507138A2A5483FF9E6DF2349A53)
Complete name : D:\60fps\триллер\Заложница-1-2-3\Заложница 2.mkv
Format : Matroska
Format version : Version 4 / Version 2
File size : 3.19 GiB
Duration : 1h 38mn
Overall bit rate : 4 642 Kbps
Movie name : Tiberiumsun69
Encoded date : UTC 2015-07-05 12:49:25
Writing application : mkvmerge v7.9.0 ('Birds') 64bit
Writing library : libebml v1.3.1 + libmatroska v1.4.2
Attachment : Yes
Video
ID : 1
Format : AVC
Format/Info : Advanced Video Codec
Format profile : [email protected]
Format settings, CABAC : Yes
Format settings, ReFrames : 4 frames
Codec ID : V_MPEG4/ISO/AVC
Duration : 1h 38mn
Bit rate : 4 000 Kbps
Width : 1 024 pixels
Height : 432 pixels
Display aspect ratio : 2.35:1
Frame rate : 59.940 fps
Color space : YUV
Chroma subsampling : 4:2:0
Bit depth : 8 bits
Scan type : Progressive
Bits/(Pixel*Frame) : 0.151
Stream size : 2.68 GiB (84%)
Writing library : x264 core 146 r2538 121396c
Encoding settings : cabac=1 / ref=4 / deblock=1:0:0 / analyse=0x3:0x113 / me=umh / subme=9 / psy=1 / psy_rd=1.00:0.10 / mixed_ref=1 / me_range=32 / chroma_me=1 / trellis=2 / 8x8dct=1 / cqm=0 / deadzone=21,11 / fast_pskip=0 / chroma_qp_offset=-3 / threads=12 / lookahead_threads=3 / sliced_threads=0 / nr=0 / decimate=1 / interlaced=0 / bluray_compat=0 / constrained_intra=0 / bframes=16 / b_pyramid=2 / b_adapt=2 / b_bias=0 / direct=3 / weightb=1 / open_gop=0 / weightp=2 / keyint=600 / keyint_min=59 / scenecut=40 / intra_refresh=0 / rc_lookahead=60 / rc=2pass / mbtree=1 / bitrate=4000 / ratetol=1.0 / qcomp=0.60 / qpmin=0 / qpmax=69 / qpstep=4 / cplxblur=20.0 / qblur=0.5 / vbv_maxrate=50000 / vbv_bufsize=62500 / nal_hrd=none / filler=0 / ip_ratio=1.40 / aq=1:1.00
Language : English
Default : Yes
Forced : No
Audio
ID : 2
Format : AC-3
Format/Info : Audio Coding 3
Mode extension : CM (complete main)
Codec ID : A_AC3
Duration : 1h 38mn
Bit rate mode : Constant
Bit rate : 640 Kbps
Channel(s) : 6 channels
Channel positions : Front: L C R, Side: L R, LFE
Sampling rate : 48.0 KHz
Bit depth : 16 bits
Compression mode : Lossy
Stream size : 450 MiB (14%)
Title : Дубляж
Language : Russian
Default : Yes
Forced : No
Text #1
ID : 3
Format : UTF-8
Codec ID : S_TEXT/UTF8
Codec ID/Info : UTF-8 Plain Text
Title : Форсированные
Language : Russian
Default : Yes
Forced : No
Text #2
ID : 4
Format : UTF-8
Codec ID : S_TEXT/UTF8
Codec ID/Info : UTF-8 Plain Text
Title : Полные
Language : Russian
Default : No
Forced : No
Text #3
ID : 5
Format : UTF-8
Codec ID : S_TEXT/UTF8
Codec ID/Info : UTF-8 Plain Text
Title : Полные
Language : English
Default : No
Forced : No
Menu
00:00:00.000 : en:en:Her Real Father (Main Titles)
00:04:18.300 : en:en:Red Meat, Red Wine
00:07:24.694 : en:en:The Diva
00:12:00.219 : en:en:Just Sign the Paper
00:14:37.418 : en:en:Rules and Conditions
00:17:53.698 : en:en:Ah, Paris
00:21:34.835 : en:en:Nightmare!
00:24:44.149 : en:en:96-Hour Window
00:27:48.792 : en:en:Searching the Apartment
00:33:00.812 : en:en:Stalking the Stalker
00:37:41.134 : en:en:Try Not to Make a Mess
00:41:00.750 : en:en:Porte De Clichy
00:44:25.079 : en:en:Makeshift Brothel
00:48:50.427 : en:en:Thanks, but No Thanks
00:54:17.129 : en:en:Paradise
01:00:45.517 : en:en:Zeroing In
01:04:28.281 : en:en:Sold
01:08:47.915 : en:en:What a Pleasant Surprise
01:11:13.603 : en:en:Saving the Best for Last
01:15:43.956 : en:en:All Sales Are Final
01:21:35.057 : en:en:Racing the Boat
01:25:39.009 : en:en:Last Man Standing
01:29:17.727 : en:en:Welcome Home
01:32:13.736 : en:en:End Titles

Скриншот c названием фильма



Последний раз редактировалось: akmstudio (2016-03-28 19:04), всего редактировалось 1 раз

Создавать темы 28-Мар-2016 18:16

[Профиль]  [ЛС] 

kat222000

Стаж: 6 лет 7 месяцев

Сообщений: 608

Симпатии: 1055

akmstudio, Заложница : Трилогия / Taken : Trilogy (2007-2014) BDRip-AVC | 60 fps сразу организовали бы...)))

Создавать темы 28-Мар-2016 19:10

[Профиль]  [ЛС] 

akmstudio ®

Стаж: 7 лет 10 месяцев

Сообщений: 38

Симпатии: 31

Не могу по принципам, 3-часть существует на другом трекере, а я 60fps не раздаю, если она есть на другом)

Комментарий от kat222000


Вы зарелизите, а не против...)))

Создавать темы 29-Мар-2016 09:30

[Профиль]  [ЛС] 
Показать сообщения:    
Ответить на тему

Текущее время: 18-Ноя 11:40

Часовой пояс: UTC + 5



Вы не можете начинать темы
Вы не можете отвечать на сообщения
Вы не можете редактировать свои сообщения
Вы не можете удалять свои сообщения
Вы не можете голосовать в опросах
Вы не можете прикреплять файлы к сообщениям
Вы не можете скачивать файлы