Танцевальный лагерь / Dance CAMP (Берт и Берти / Bert & Bertie) [2016, США, драма, комедия, WEB-DLRip] (DVO)

Ответить на тему
 

mwisdom ®

Стаж: 1 год 9 месяцев

Сообщений: 9

Симпатии: 9

Танцевальный лагерь / Dance CAMP- -Страна: США
Жанр: драма, комедия
Год выпуска: 2016
Продолжительность: 01:24:00
Перевод: Любительский (двухголосый закадровый)
-Режиссер:
Берт и Берти / Bert & Bertie
-В ролях:
Ричард Балин, Мэри Каталано, Мэг ДеАнджелис, Без Карли Эренио, Энни Хэмилтон, Наджи Джетер, Джордин Джонс
-Описание:
Хантер живет вместе с родителями. Учиться ему ужасно неохота. Так что он начинает прогуливать, из-за чего у Хантера постоянно неприятности. Родителям не нравится его поведение, и поэтому он с ними то и дело ссорится. Отец решил, что танцевальный лагерь – это то самое место, где Хантер может хоть чему-то научиться. Каждый год здесь собираются множество людей, которые обучаются танцевать, чтобы затем устроить настоящее соревнование. Сначала Хантеру в лагере не очень нравится, и он начинает злиться на родителей. Но постепенно музыка и ритм захватывают его. Пока Хантер размышляет, ему попадается девушка, к которой он начинает испытывать сильные чувства. Вскоре они составляют в танцах пару. Но вскоре должен состояться турнир, и Хантеру хочется победить. Но для этого ему придется приложить немало сил и старания
-Качество видео: WEB-DLRip
Формат видео: AVI
Видео: 1933 Кбит/с, 720x400 23.976 fps
Аудио: AC3, 2 ch, 192 Кбит/с
-

MediaInfo

General
Complete name : D:\kino films\Dance.Camp.2016.DVO.WEB-DLRip.1400MB.avi
Format : AVI
Format/Info : Audio Video Interleave
File size : 1.37 GiB
Duration : 1h 24mn
Overall bit rate : 2 332 Kbps
Writing application : VirtualDubMod 1.5.10.2 (build 2540/release)
Writing library : VirtualDubMod build 2540/release
Video
ID : 0
Format : MPEG-4 Visual
Format profile : Advanced [email protected]
Format settings, BVOP : 2
Format settings, QPel : No
Format settings, GMC : No warppoints
Format settings, Matrix : Default (MPEG)
Codec ID : XVID
Codec ID/Hint : XviD
Duration : 1h 24mn
Bit rate : 1 933 Kbps
Width : 720 pixels
Height : 400 pixels
Display aspect ratio : 16:9
Frame rate : 23.976 (23976/1000) fps
Color space : YUV
Chroma subsampling : 4:2:0
Bit depth : 8 bits
Scan type : Progressive
Compression mode : Lossy
Bits/(Pixel*Frame) : 0.280
Stream size : 1.13 GiB (83%)
Writing library : XviD 1.2.1 (UTC 2008-12-04)
Audio #1
ID : 1
Format : AC-3
Format/Info : Audio Coding 3
Mode extension : CM (complete main)
Format settings, Endianness : Big
Codec ID : 2000
Duration : 1h 24mn
Bit rate mode : Constant
Bit rate : 192 Kbps
Channel(s) : 2 channels
Channel positions : Front: L R
Sampling rate : 48.0 KHz
Frame rate : 31.250 fps (1536 spf)
Compression mode : Lossy
Stream size : 115 MiB (8%)
Alignment : Split accross interleaves
Interleave, duration : 42 ms (1.00 video frame)
Interleave, preload duration : 500 ms
Audio #2
ID : 2
Format : AC-3
Format/Info : Audio Coding 3
Mode extension : CM (complete main)
Format settings, Endianness : Big
Codec ID : 2000
Duration : 1h 24mn
Bit rate mode : Constant
Bit rate : 192 Kbps
Channel(s) : 2 channels
Channel positions : Front: L R
Sampling rate : 48.0 KHz
Frame rate : 31.250 fps (1536 spf)
Compression mode : Lossy
Stream size : 115 MiB (8%)
Alignment : Split accross interleaves
Interleave, duration : 42 ms (1.00 video frame)
Interleave, preload duration : 500 ms

Скриншот c названием фильма

Скриншоты













Создавать темы 28-Мар-2016 23:37

[Профиль]  [ЛС] 

mwisdom ®

Стаж: 1 год 9 месяцев

Сообщений: 9

Симпатии: 9

почему временная?

Комментарий от ruhal


из за перевода

Создавать темы 29-Мар-2016 22:23

[Профиль]  [ЛС] 

mwisdom ®

Стаж: 1 год 9 месяцев

Сообщений: 9

Симпатии: 9

А чем перевод не понравился???

Комментарий от ruhal


Любительский

Создавать темы 31-Мар-2016 01:43

[Профиль]  [ЛС] 
Показать сообщения:    
Ответить на тему

Текущее время: 19-Авг 12:18

Часовой пояс: UTC + 5



Вы не можете начинать темы
Вы не можете отвечать на сообщения
Вы не можете редактировать свои сообщения
Вы не можете удалять свои сообщения
Вы не можете голосовать в опросах
Вы не можете прикреплять файлы к сообщениям
Вы не можете скачивать файлы