Викинги / Vikings / Сезон: 4 Полный / Серии: 20 из 20 (Йохан Ренк, Киаран Доннелли, Кен Джиротти) [2016, Боевик, драма, военный, история, WEB-DLRip] [LostFilm]

Страницы :  1, 2  След.

Ответить на тему
 

ruhal ®

Стаж: 2 года 7 месяцев

Сообщений: 1181

Симпатии: 1836

- -Викинги / Vikings
4 Сезон Полный: 1-20 серий из 20
-
Год выпуска: 2016
Страна: Канада, Ирландия
Жанр: Боевик, драма, военный, история
Продолжительность: ~00:45:00(Серия)-Перевод: Профессиональный многоголосый закадровый| LostFilm
Русские субтитры: нет
Режиссёр: Йохан Ренк, Киаран Доннелли, Кен Джиротти-В ролях: Трэвис Фиммел, Клайв Стэнден, Гэбриел Бирн, Кэтрин Уинник, Джессалин Гилсиг,
Джордж Благден, Густаф Скарсгард, Торбьорн Харр, Владимир Кулих, Донал Лог, Айван Кэй, Мод Хирст,
Эрик Хиггинс, Герард Маккарти, Юко Ахола, Эми Де Брюн, Сэм Смит, Билл Гибсон, Кевин Мюррэй-Описание: История повествует о приключениях величайшего героя своего времени – Рагнара Лодброка.
В сериале показан Рагнар со своим племенем братьев-викингов и его семьёй в процессе становления королём всех племён викингов.
Рагнар – бесстрашный воин, и религиозный викинг, который объединяет все племена и распространяет среди них поклонение скандинавским богам.
Согласно легенде, он – прямой потомок Одина, бога войны и воителей.-Качество: WEB-DLRip
Формат: AVI
Видео: Xvid 720x400 23.976fps 1818kbps
Аудио: MP3 48000Hz stereo 186kbps
-

MediaInfo

General
Complete name : E:\Films\Vikings (S04) LostFilm\Vikings.S04E01.rus.LostFilm.TV.avi
Format : AVI
Format/Info : Audio Video Interleave
File size : 640 MiB
Duration : 44mn 20s
Overall bit rate mode : Variable
Overall bit rate : 2 018 Kbps
Writing application : Nandub v1.0rc2
Writing library : Nandub build 1853/release
Video
ID : 0
Format : MPEG-4 Visual
Format profile : Advanced [email protected]
Format settings, BVOP : No
Format settings, QPel : No
Format settings, GMC : No warppoints
Format settings, Matrix : Default (H.263)
Codec ID : XVID
Codec ID/Hint : XviD
Duration : 44mn 20s
Bit rate : 1 819 Kbps
Width : 720 pixels
Height : 400 pixels
Display aspect ratio : 16:9
Frame rate : 23.976 fps
Color space : YUV
Chroma subsampling : 4:2:0
Bit depth : 8 bits
Scan type : Progressive
Compression mode : Lossy
Bits/(Pixel*Frame) : 0.263
Stream size : 577 MiB (90%)
Writing library : XviD 1.2.1 (UTC 2008-12-04)
Audio
ID : 1
Format : MPEG Audio
Format version : Version 1
Format profile : Layer 3
Mode : Joint stereo
Mode extension : MS Stereo
Codec ID : 55
Codec ID/Hint : MP3
Duration : 44mn 20s
Bit rate mode : Variable
Bit rate : 192 Kbps
Channel(s) : 2 channels
Sampling rate : 48.0 KHz
Compression mode : Lossy
Stream size : 59.2 MiB (9%)
Alignment : Aligned on interleaves
Interleave, duration : 24 ms (0.58 video frame)
Interleave, preload duration : 489 ms
Writing library : LAME3.97b
Encoding settings : -m j -V 4 -q 3 -lowpass 18.6 --abr 192

Скриншоты



Раздача ведется путем добавления новых серий!!!

Внимание! Раздача ведётся путём добавления новых серий; при каждом добавлении создаётся новый торрент. Чтобы начать докачку новой серии, пользователям необходимо сделать следующее:
1. остановить скачивание,
2. удалить старый торрент у себя из клиента (старые серии удалять не надо),
3. скачать новый торрент и запустить его у себя в клиенте вместо старого, при этом указать клиенту путь в старую папку куда и должно происходить скачивание новых серий.
Ваш клиент при этом должен произвести хеширование (проверку) старой папки (если не производит сам - помогите ему сделать это), и будет докачивать только те серии которых у вас ещё нет. Старые серии при этом не удаляются, а продолжают раздаваться!
Eсли вы уже удалили старые серии, то предотвратить повторную закачку старых серий можно, отжав галочку в соответствующих местах при запуске нового торрента. По возможности, желательно не удалять старые серии как можно дольше чтобы релизёр не столько продолжал раздавать старые серии, а смог сконцентрироваться на новых.


Последний раз редактировалось: ruhal (2017-02-05 09:43), всего редактировалось 26 раз(а)

Создавать темы 29-Мар-2016 06:06

[Профиль]  [ЛС] 

Админ

Стаж: 8 лет 10 месяцев

Сообщений: 290

Симпатии: 844

Первая раздача проверенная мной :) Сильно не бейте если что не так (:

Создавать темы 29-Мар-2016 07:12

[Профиль]  [ЛС] 

ruhal ®

Стаж: 2 года 7 месяцев

Сообщений: 1181

Симпатии: 1836

1 - 7 серия!


Последний раз редактировалось: ruhal (2016-05-28 10:06), всего редактировалось 1 раз

Создавать темы 04-Апр-2016 09:33

[Профиль]  [ЛС] 

beeschunmo

Стаж: 3 года 11 месяцев

Сообщений: 143

Симпатии: 11

от ньюсудио релиз тоже сделайте пжалста!!!

Комментарий от saidali


Вечером добавлю

Создавать темы 04-Апр-2016 12:52

[Профиль]  [ЛС] 

ruhal ®

Стаж: 2 года 7 месяцев

Сообщений: 1181

Симпатии: 1836

971535от ньюсудио релиз тоже сделайте пжалста!!!
А чем тебе этот дубляж плох?

Создавать темы 04-Апр-2016 17:08

[Профиль]  [ЛС] 

beeschunmo

Стаж: 3 года 11 месяцев

Сообщений: 143

Симпатии: 11

971552
971535от ньюсудио релиз тоже сделайте пжалста!!!
А чем тебе этот дубляж плох?
Начал смотреть в озвучке Ньюсов, привык к голосам! Когда начинаю смотреть в одной озвучке, к другой уже не могу привыкнуть... такой вот необычный перфекционизм)

Создавать темы 04-Апр-2016 23:29

[Профиль]  [ЛС] 

ruhal ®

Стаж: 2 года 7 месяцев

Сообщений: 1181

Симпатии: 1836

8 серия!

Создавать темы 11-Апр-2016 19:39

[Профиль]  [ЛС] 

ruhal ®

Стаж: 2 года 7 месяцев

Сообщений: 1181

Симпатии: 1836

9 серия!

Создавать темы 19-Апр-2016 05:56

[Профиль]  [ЛС] 

ruhal ®

Стаж: 2 года 7 месяцев

Сообщений: 1181

Симпатии: 1836

10 серия!
Дата выхода 11 серии назначена на осень 2016 года

Создавать темы 25-Апр-2016 10:09

[Профиль]  [ЛС] 

Ilham

Стаж: 6 лет 9 месяцев

Сообщений: 103

Симпатии: 3

когда продолжение?

Создавать темы 01-Окт-2016 18:09

[Профиль]  [ЛС] 

ruhal ®

Стаж: 2 года 7 месяцев

Сообщений: 1181

Симпатии: 1836

985338когда продолжение?
Дата выхода в эфир 11 серии 4 сезона Викингов вероятнее всего намечена на 30 ноября 2016 года.

Создавать темы 01-Окт-2016 18:21

[Профиль]  [ЛС] 

Ilham

Стаж: 6 лет 9 месяцев

Сообщений: 103

Симпатии: 3

мужики,не вышла 11 серия?

Создавать темы 01-Дек-2016 17:37

[Профиль]  [ЛС] 

ruhal ®

Стаж: 2 года 7 месяцев

Сообщений: 1181

Симпатии: 1836

987792мужики,не вышла 11 серия?
http://tas-ix.me/viewtopic.php?t=115405

Создавать темы 01-Дек-2016 20:03

[Профиль]  [ЛС] 

ruhal ®

Стаж: 2 года 7 месяцев

Сообщений: 1181

Симпатии: 1836

11 серия!

Создавать темы 04-Дек-2016 09:21

[Профиль]  [ЛС] 

europrint

Стаж: 6 лет 9 месяцев

Сообщений: 26

Симпатии: 2

Наконец-то дождались. Респект автору

Создавать темы 04-Дек-2016 10:50

[Профиль]  [ЛС] 
Показать сообщения:    
Ответить на тему

Текущее время: 18-Ноя 19:09

Часовой пояс: UTC + 5



Вы не можете начинать темы
Вы не можете отвечать на сообщения
Вы не можете редактировать свои сообщения
Вы не можете удалять свои сообщения
Вы не можете голосовать в опросах
Вы не можете прикреплять файлы к сообщениям
Вы не можете скачивать файлы