Грязные войны / Dirty Wars (Рик Роули) [2013, США, документальный, драма, криминал, детектив, военный, HDRip] VO [Селена Интернешнл]

Ответить на тему
 

lotto ®

Стаж: 7 лет 7 месяцев

Сообщений: 221

Симпатии: 409

Грязные войны / Dirty Wars
«A secret army. A war without end. A journalist determined to uncover the truth»
-- Страна: США
Жанр: документальный, драма, криминал, детектив, военный
Год выпуска: 2013
Продолжительность: 01:26:16
Перевод: Профессиональный (одноголосый закадровый) [Селена Интернешнл]
Cубтитры: нет--Режиссер: Рик Роули
В ролях: Нассер Аль Аулаки, Салеха Аль Аулаки, Мукбал Аль Каземи, Абдул Рахман Барман, Сале Бин Фарид, Эндрю Эксум, Абдул Гафур, Филип Джиральди, Мэттью Хо, Патрик Лэнг--Описание: Фильм рассказывает о том, как Скэхилл, автор международного бестселлера «Блэкуотер», ведет свое расследование на территории от Афганистана до Йемена, Сомали и далее, пытаясь проникнуть в секреты тайных войн Америки. В то время как Скэхилл открывает тайный мир секретных операций, скрытых от общественности и людей, которых не существует на бумаге, и кто никогда не появится перед Конгрессом, ему открываются темные и неприглядные факты о действиях солдат из Командования специальных операций США.-- --Качество видео: HDRip
Формат видео: AVI
Видео: Xvid 720x384 23.976fps 2028kbps
Аудио: AC3 48000Hz stereo 192kbps (русский, одноголосый)

MediaInfo

General
Complete name : Gryaznuie.Voinui.2013.avi
Format : AVI
Format/Info : Audio Video Interleave
File size : 1.34 GiB
Duration : 1h 26mn
Overall bit rate : 2 229 Kbps
Writing application : VirtualDubMod 1.5.10.3 | www.virtualdub-fr.org || (build 2550/release)
Writing library : VirtualDubMod build 2550/release
Video
ID : 0
Format : MPEG-4 Visual
Format profile : Advanced [email protected]
Format settings, BVOP : 2
Format settings, QPel : No
Format settings, GMC : No warppoints
Format settings, Matrix : Default (H.263)
Codec ID : XVID
Codec ID/Hint : XviD
Duration : 1h 26mn
Bit rate : 2 028 Kbps
Width : 720 pixels
Height : 384 pixels
Display aspect ratio : 1.85:1
Frame rate : 23.976 (23976/1000) fps
Color space : YUV
Chroma subsampling : 4:2:0
Bit depth : 8 bits
Scan type : Progressive
Compression mode : Lossy
Bits/(Pixel*Frame) : 0.306
Stream size : 1.22 GiB (91%)
Writing library : XviD 1.2.1 (UTC 2008-12-04)
Audio
ID : 1
Format : AC-3
Format/Info : Audio Coding 3
Mode extension : CM (complete main)
Format settings, Endianness : Big
Codec ID : 2000
Duration : 1h 26mn
Bit rate mode : Constant
Bit rate : 192 Kbps
Channel(s) : 2 channels
Channel positions : Front: L R
Sampling rate : 48.0 KHz
Frame rate : 31.250 fps (1536 spf)
Compression mode : Lossy
Stream size : 118 MiB (9%)
Alignment : Split accross interleaves
Interleave, duration : 42 ms (1.00 video frame)
Interleave, preload duration : 500 ms

Скриншот c названием фильма

Скриншоты




Создавать темы 29-Мар-2016 11:11

[Профиль]  [ЛС] 
Показать сообщения:    
Ответить на тему

Текущее время: 20-Авг 18:42

Часовой пояс: UTC + 5



Вы не можете начинать темы
Вы не можете отвечать на сообщения
Вы не можете редактировать свои сообщения
Вы не можете удалять свои сообщения
Вы не можете голосовать в опросах
Вы не можете прикреплять файлы к сообщениям
Вы не можете скачивать файлы