Рандеву с жизнью (фильм) / Gekijouban Date A Live - Mayuri Judgement (Мотонага Кэйтаро) [Movie] [без хардсаба] [RUS(int),JAP+SUB] [2015 г., приключения, фэнтези, романтика, этти, BDRip] [720p]

Ответить на тему
 

Азиз87 ®

Стаж: 4 года 11 месяцев

Сообщений: 752

Симпатии: 143

Рандеву с жизнью (фильм) / Gekijouban Date A Live - Mayuri Judgement
-Год: 2015
Жанр: приключения, фэнтези, романтика, этти
Страна: Япония
Количество серий: 1
Продолжительность: 75 мин.
Дата выпуска: 22.08.2015-Режиссер: Мотонага Кэйтаро
Автор оригинала / Сценарист: Тачибана Коши
Студия: Production IMS-Озвучивание: Esther, Nika Lenina, Tоргиль, Trina_D, Гамлетка Цезаревна, Ancord
Перевод: Bobby Deimos, Гошик, FooBoo
Тайминг и работа со звуком: NeSqUiK-Описание: Для Ицуки Шидо вновь потекли спокойные деньки. Никаких битв, не надо никого спасать… Но всему хорошему приходит конец. Над городом появилась непонятная сфера, которую видит только он, а одновременно с ней - и таинственная девушка, которая явно за ним наблюдает… Но зачем?-Качество: BDRip | Формат видео: MP4
Видео: AVC (8 bits), 1280х720, ~2 400 kbps, 23.976 fps
Аудио Japanese: AAC, ~192 kbps, 48.0 KHz, 2.0 ch - внешним файлом
Аудио Russian: AAC, ~192 kbps, 48.0 KHz, 2.0 ch

MI

General
Complete name :[AniDub]_Gekijouban_Date_a_Live_Mayuri_Judgement_[BDRip720p_x264_Aac]_[MVO].mp4
Format : MPEG-4
Format profile : Base Media
Codec ID : isom (isom)
File size : 1.33 GiB
Duration : 1h 12mn
Overall bit rate mode : Variable
Overall bit rate : 2 628 Kbps
Encoded date : UTC 2016-03-29 17:44:58
Tagged date : UTC 2016-03-29 17:44:58
Writing application : Yamb 2.1.0.0 [http://yamb.unite-video.com]
Video
ID : 1
Format : AVC
Format/Info : Advanced Video Codec
Format profile : [email protected]
Format settings, CABAC : Yes
Format settings, ReFrames : 4 frames
Codec ID : avc1
Codec ID/Info : Advanced Video Coding
Duration : 1h 12mn
Bit rate : 2 432 Kbps
Maximum bit rate : 19.7 Mbps
Width : 1 280 pixels
Height : 720 pixels
Display aspect ratio : 16:9
Frame rate mode : Constant
Frame rate : 23.976 (24000/1001) fps
Color space : YUV
Chroma subsampling : 4:2:0
Bit depth : 8 bits
Scan type : Progressive
Bits/(Pixel*Frame) : 0.110
Stream size : 1.23 GiB (93%)
Writing library : x264 core 148 r2665 a01e339
Encoding settings : cabac=1 / ref=3 / deblock=1:0:0 / analyse=0x1:0x131 / me=umh / subme=9 / psy=1 / psy_rd=1.00:0.00 / mixed_ref=1 / me_range=32 / chroma_me=1 / trellis=1 / 8x8dct=0 / cqm=0 / deadzone=21,11 / fast_pskip=1 / chroma_qp_offset=-2 / threads=12 / lookahead_threads=1 / sliced_threads=0 / nr=0 / decimate=1 / interlaced=0 / bluray_compat=0 / constrained_intra=0 / bframes=3 / b_pyramid=2 / b_adapt=1 / b_bias=0 / direct=1 / weightb=1 / open_gop=0 / weightp=2 / keyint=240 / keyint_min=1 / scenecut=40 / intra_refresh=0 / rc_lookahead=40 / rc=crf / mbtree=1 / crf=17.0 / qcomp=0.60 / qpmin=0 / qpmax=69 / qpstep=4 / ip_ratio=1.40 / aq=1:1.00
Encoded date : UTC 2016-02-29 12:21:53
Tagged date : UTC 2016-03-29 17:45:51
Audio
ID : 2
Format : AAC
Format/Info : Advanced Audio Codec
Format profile : LC
Codec ID : 40
Duration : 1h 12mn
Bit rate mode : Variable
Bit rate : 192 Kbps
Maximum bit rate : 201 Kbps
Channel(s) : 2 channels
Channel positions : Front: L R
Sampling rate : 48.0 KHz
Frame rate : 46.875 fps (1024 spf)
Compression mode : Lossy
Stream size : 99.4 MiB (7%)
Language : Russian
Encoded date : UTC 2016-03-29 17:45:47
Tagged date : UTC 2016-03-29 17:45:51

Скриншоты



Последний раз редактировалось: Азиз87 (2016-03-30 09:21), всего редактировалось 1 раз

Создавать темы 30-Мар-2016 00:52

[Профиль]  [ЛС] 

Азиз87 ®

Стаж: 4 года 11 месяцев

Сообщений: 752

Симпатии: 143

Не стал заморачиваться и менять файлы с Анидаба, для любителей сабов рядом лежит японская дорожка + сабы, в "матрешке" вшитый русский язык. Всем приятного просмотра!

Создавать темы 30-Мар-2016 09:20

[Профиль]  [ЛС] 
Показать сообщения:    
Ответить на тему

Текущее время: 24-Окт 09:16

Часовой пояс: UTC + 5



Вы не можете начинать темы
Вы не можете отвечать на сообщения
Вы не можете редактировать свои сообщения
Вы не можете удалять свои сообщения
Вы не можете голосовать в опросах
Вы не можете прикреплять файлы к сообщениям
Вы не можете скачивать файлы