В центре внимания / Spotlight (Том МакКарти/Tom McCarthy) [2015, США, Триллер, Детектив, BDRip-AVC] (Dub) (Sub Eng + Original Eng)

Ответить на тему
 

Godfatherbek ®

Стаж: 1 год 7 месяцев

Сообщений: 18

Симпатии: 3

В центре внимание / Spotlight
Страна: США
Жанр: Триллер, Детектив
Год выпуска: 2015
Продолжительность: 02:09:08
Перевод: Профессиональный (дублированный)
Cубтитры: английские
Оригинальная аудиодорожка: английский
Режиссер: Том МакКарти/Tom McCarthy
В ролях: Марк Руффало, Майкл Китон, Рэйчел МакАдамс, Лив Шрайбер, Джон Слэттери, Стэнли Туччи, Билли Крудап, Лана Антонова, Лен Кариу, Джейми Шеридан
Описание: В основу ленты легло журналистское расследование газеты The Boston Globe. Целая группа авторов копала под бостонскую митрополию и, в конце концов, отрыла педофильский скандал. Они сумели доказать, что некоторые священники Бостона приставали к детям, при этом кардинал и архиепископ городской церкви Бернард Лоу об этом знал и якобы покрывал их. После публикации скандал разгорался все сильнее и сильнее по принципу цепной реакции, и, в итоге, привел к отставке кардинала Лоу. Вдобавок, бостонская церковь выплатила миллионы компенсации и закрыла больше полусотни приходов.
Качество видео: BDRip-AVC
Формат видео: MKV-Видео: H.264-MPEG4, 7000 kb/s, 1280x692
Аудио 1 : AC3, 384 kb/s, (6 ch) (iTunes)(RU)
Аудио 2 : DTS, 1510 kb/s (6 ch) (English)
Формат субтитров: prerendered (IDX+SUB)Английские-

MediaInfo

Format : Matroska
Format version : Version 4 / Version 2
File size : 8.02 GiB
Duration : 2h 9mn
Overall bit rate : 8 887 Kbps
Encoded date : UTC 2016-02-21 02:07:02
Writing application : mkvmerge v8.3.0 ('Over the Horizon') 64bit
Writing library : libebml v1.3.1 + libmatroska v1.4.2
DURATION : 01:59:14.939000000
NUMBER_OF_FRAMES : 2400
NUMBER_OF_BYTES : 84929
_STATISTICS_WRITING_APP : mkvmerge v8.3.0 ('Over the Horizon') 64bit
_STATISTICS_WRITING_DATE_UT : 2016-02-21 02:07:02
_STATISTICS_TAGS : BPS DURATION NUMBER_OF_FRAMES NUMBER_OF_BYTES
Video
ID : 1
Format : AVC
Format/Info : Advanced Video Codec
Format profile : [email protected]
Format settings, CABAC : Yes
Format settings, ReFrames : 9 frames
Codec ID : V_MPEG4/ISO/AVC
Duration : 2h 9mn
Bit rate : 7 000 Kbps
Width : 1 280 pixels
Height : 692 pixels
Display aspect ratio : 1.85:1
Frame rate mode : Constant
Frame rate : 23.976 fps
Color space : YUV
Chroma subsampling : 4:2:0
Bit depth : 8 bits
Scan type : Progressive
Bits/(Pixel*Frame) : 0.330
Stream size : 6.15 GiB (77%)
Writing library : x264 core 148 r2597 e86f3a1
Encoding settings : cabac=1 / ref=9 / deblock=1:-3:-3 / analyse=0x3:0x133 / me=umh / subme=11 / psy=1 / psy_rd=1.05:0.00 / mixed_ref=1 / me_range=32 / chroma_me=1 / trellis=2 / 8x8dct=1 / cqm=0 / deadzone=21,11 / fast_pskip=0 / chroma_qp_offset=-2 / threads=22 / lookahead_threads=3 / sliced_threads=0 / nr=0 / decimate=0 / interlaced=0 / bluray_compat=0 / constrained_intra=0 / bframes=8 / b_pyramid=2 / b_adapt=2 / b_bias=0 / direct=3 / weightb=1 / open_gop=0 / weightp=2 / keyint=240 / keyint_min=24 / scenecut=40 / intra_refresh=0 / rc=2pass / mbtree=0 / bitrate=7000 / ratetol=1.0 / qcomp=0.70 / qpmin=0 / qpmax=69 / qpstep=4 / cplxblur=20.0 / qblur=0.5 / ip_ratio=1.20 / pb_ratio=1.20 / aq=3:0.85
Language : English
Default : Yes
Forced : No
DURATION : 02:09:08.157000000
NUMBER_OF_FRAMES : 185770
NUMBER_OF_BYTES : 6771435143
_STATISTICS_WRITING_APP : mkvmerge v8.3.0 ('Over the Horizon') 64bit
_STATISTICS_WRITING_DATE_UT : 2016-02-21 02:07:02
_STATISTICS_TAGS : BPS DURATION NUMBER_OF_FRAMES NUMBER_OF_BYTES
Audio #1
ID : 2
Format : AC-3
Format/Info : Audio Coding 3
Mode extension : CM (complete main)
Format settings, Endianness : Big
Codec ID : A_AC3
Duration : 2h 9mn
Bit rate mode : Constant
Bit rate : 384 Kbps
Channel(s) : 6 channels
Channel positions : Front: L C R, Side: L R, LFE
Sampling rate : 48.0 KHz
Compression mode : Lossy
Stream size : 355 MiB (4%)
Title : iTunes
Language : Russian
Default : Yes
Forced : No
Audio #2
ID : 3
Format : DTS
Format/Info : Digital Theater Systems
Mode : 16
Format settings, Endianness : Big
Codec ID : A_DTS
Duration : 2h 9mn
Bit rate mode : Constant
Bit rate : 1 509 Kbps
Channel(s) : 6 channels
Channel positions : Front: L C R, Side: L R, LFE
Sampling rate : 48.0 KHz
Bit depth : 24 bits
Compression mode : Lossy
Stream size : 1.36 GiB (17%)
Language : English
Default : No
Forced : No
Text #1
ID : 4
Format : UTF-8
Codec ID : S_TEXT/UTF8
Codec ID/Info : UTF-8 Plain Text
Language : English
Default : No
Forced : No
Text #2
ID : 5
Format : UTF-8
Codec ID : S_TEXT/UTF8
Codec ID/Info : UTF-8 Plain Text
Language : English
Default : No
Forced : No

Скриншоты






Последний раз редактировалось: Godfatherbek (2016-04-01 22:28), всего редактировалось 2 раз(а)

Создавать темы 30-Мар-2016 10:45

[Профиль]  [ЛС] 

ziyod

Стаж: 7 лет 8 месяцев

Сообщений: 367

Симпатии: 60

971071Видео: H.264-MPEG4, 1280x692, 24,
971071Аудио 2: DTS, 48000 KHz, ENGLISH
Где битрейт аудио и видео?

Создавать темы 30-Мар-2016 16:20

[Профиль]  [ЛС] 

Godfatherbek ®

Стаж: 1 год 7 месяцев

Сообщений: 18

Симпатии: 3

971091
971071Видео: H.264-MPEG4, 1280x692, 24,
971071Аудио 2: DTS, 48000 KHz, ENGLISH
Где битрейт аудио и видео?
Ну зачем этот бит рейт? Не будь занудой..

Создавать темы 30-Мар-2016 17:09

[Профиль]  [ЛС] 

ziyod

Стаж: 7 лет 8 месяцев

Сообщений: 367

Симпатии: 60

971071
Качество видео: BDRip-AVC
Формат видео: MKV
Видео: H.264-MPEG4, 1280x692, 24,
Аудио: AC3, 48000 KHz, 384 kb/sec, 3F2R/LFE, РУССКИЙ
Аудио 2: DTS, 48000 KHz, ENGLISH
Формат субтитров: prerendered (IDX+SUB)
нафиг тогда это всё... не пишиТЕ!

Создавать темы 31-Мар-2016 11:18

[Профиль]  [ЛС] 

Gen-X

Стаж: 4 года 10 месяцев

Сообщений: 125

Симпатии: 56

Кроме того что писали тебе, исправь
971071
В центре внимание / Spotlight
Перевод: Профессиональный (дублированный)

MediaInfo

BPS: 94
Statistics_writing_app: mkvmerge v8.3.0("Over the horizon") 64-bit
Number of bytes: 84929
Number of Frames: 2400
на
В центре внимания / Spotlight
Перевод: Профессиональный (многоголосый, закадровый) [iTunes]

MediaInfo

Format : Matroska
Format version : Version 4 / Version 2
File size : 8.02 GiB
Duration : 2h 9mn
Overall bit rate : 8 887 Kbps
Encoded date : UTC 2016-02-21 02:07:02
Writing application : mkvmerge v8.3.0 ('Over the Horizon') 64bit
Writing library : libebml v1.3.1 + libmatroska v1.4.2
DURATION : 01:59:14.939000000
NUMBER_OF_FRAMES : 2400
NUMBER_OF_BYTES : 84929
_STATISTICS_WRITING_APP : mkvmerge v8.3.0 ('Over the Horizon') 64bit
_STATISTICS_WRITING_DATE_UT : 2016-02-21 02:07:02
_STATISTICS_TAGS : BPS DURATION NUMBER_OF_FRAMES NUMBER_OF_BYTES
Video
ID : 1
Format : AVC
Format/Info : Advanced Video Codec
Format profile : [email protected]
Format settings, CABAC : Yes
Format settings, ReFrames : 9 frames
Codec ID : V_MPEG4/ISO/AVC
Duration : 2h 9mn
Bit rate : 7 000 Kbps
Width : 1 280 pixels
Height : 692 pixels
Display aspect ratio : 1.85:1
Frame rate mode : Constant
Frame rate : 23.976 fps
Color space : YUV
Chroma subsampling : 4:2:0
Bit depth : 8 bits
Scan type : Progressive
Bits/(Pixel*Frame) : 0.330
Stream size : 6.15 GiB (77%)
Writing library : x264 core 148 r2597 e86f3a1
Encoding settings : cabac=1 / ref=9 / deblock=1:-3:-3 / analyse=0x3:0x133 / me=umh / subme=11 / psy=1 / psy_rd=1.05:0.00 / mixed_ref=1 / me_range=32 / chroma_me=1 / trellis=2 / 8x8dct=1 / cqm=0 / deadzone=21,11 / fast_pskip=0 / chroma_qp_offset=-2 / threads=22 / lookahead_threads=3 / sliced_threads=0 / nr=0 / decimate=0 / interlaced=0 / bluray_compat=0 / constrained_intra=0 / bframes=8 / b_pyramid=2 / b_adapt=2 / b_bias=0 / direct=3 / weightb=1 / open_gop=0 / weightp=2 / keyint=240 / keyint_min=24 / scenecut=40 / intra_refresh=0 / rc=2pass / mbtree=0 / bitrate=7000 / ratetol=1.0 / qcomp=0.70 / qpmin=0 / qpmax=69 / qpstep=4 / cplxblur=20.0 / qblur=0.5 / ip_ratio=1.20 / pb_ratio=1.20 / aq=3:0.85
Language : English
Default : Yes
Forced : No
DURATION : 02:09:08.157000000
NUMBER_OF_FRAMES : 185770
NUMBER_OF_BYTES : 6771435143
_STATISTICS_WRITING_APP : mkvmerge v8.3.0 ('Over the Horizon') 64bit
_STATISTICS_WRITING_DATE_UT : 2016-02-21 02:07:02
_STATISTICS_TAGS : BPS DURATION NUMBER_OF_FRAMES NUMBER_OF_BYTES
Audio #1
ID : 2
Format : AC-3
Format/Info : Audio Coding 3
Mode extension : CM (complete main)
Format settings, Endianness : Big
Codec ID : A_AC3
Duration : 2h 9mn
Bit rate mode : Constant
Bit rate : 384 Kbps
Channel(s) : 6 channels
Channel positions : Front: L C R, Side: L R, LFE
Sampling rate : 48.0 KHz
Compression mode : Lossy
Stream size : 355 MiB (4%)
Title : iTunes
Language : Russian
Default : Yes
Forced : No
Audio #2
ID : 3
Format : DTS
Format/Info : Digital Theater Systems
Mode : 16
Format settings, Endianness : Big
Codec ID : A_DTS
Duration : 2h 9mn
Bit rate mode : Constant
Bit rate : 1 509 Kbps
Channel(s) : 6 channels
Channel positions : Front: L C R, Side: L R, LFE
Sampling rate : 48.0 KHz
Bit depth : 24 bits
Compression mode : Lossy
Stream size : 1.36 GiB (17%)
Language : English
Default : No
Forced : No
Text #1
ID : 4
Format : UTF-8
Codec ID : S_TEXT/UTF8
Codec ID/Info : UTF-8 Plain Text
Language : English
Default : No
Forced : No
Text #2
ID : 5
Format : UTF-8
Codec ID : S_TEXT/UTF8
Codec ID/Info : UTF-8 Plain Text
Language : English
Default : No
Forced : No
у меня хэш полностью совпадает. И если хочешь добавь данные ниже
Видео: MPEG-4 AVC, 7000 kb/s, 1280x692
Аудио 1 : AC3, 384 kb/s, (6 ch) (iTunes)
Аудио 2 : DTS, 1510 kb/s (6 ch) (English)
Субтитры: Английские

Создавать темы 31-Мар-2016 13:40

[Профиль]  [ЛС] 

Godfatherbek ®

Стаж: 1 год 7 месяцев

Сообщений: 18

Симпатии: 3

971156
971071
Качество видео: BDRip-AVC
Формат видео: MKV
Видео: H.264-MPEG4, 1280x692, 24,
Аудио: AC3, 48000 KHz, 384 kb/sec, 3F2R/LFE, РУССКИЙ
Аудио 2: DTS, 48000 KHz, ENGLISH
Формат субтитров: prerendered (IDX+SUB)
нафиг тогда это всё... не пишиТЕ!
Вот именно! Кто вообще смотрит на них. Вот и не будь"ТЕ" занудой

Создавать темы 31-Мар-2016 14:10

[Профиль]  [ЛС] 

ziyod

Стаж: 7 лет 8 месяцев

Сообщений: 367

Симпатии: 60

971167Вот именно! Кто вообще смотрит на них.
ППЦ!...

Создавать темы 31-Мар-2016 17:10

[Профиль]  [ЛС] 

bayoz

Стаж: 5 лет

Сообщений: 10

Спасибо всем! Особенно nsbcom.

Создавать темы 10-Мар-2017 20:09

[Профиль]  [ЛС] 
Показать сообщения:    
Ответить на тему

Текущее время: 19-Ноя 10:07

Часовой пояс: UTC + 5



Вы не можете начинать темы
Вы не можете отвечать на сообщения
Вы не можете редактировать свои сообщения
Вы не можете удалять свои сообщения
Вы не можете голосовать в опросах
Вы не можете прикреплять файлы к сообщениям
Вы не можете скачивать файлы