Искусство войны / The Art of War (Кристиан Дюгэй/Christian Duguay) [2000, США, Канада, боевик, триллер, криминал, приключения, DVDRip] (Dub)

Ответить на тему
 

teddi ®

Стаж: 1 год 6 месяцев

Сообщений: 87

Симпатии: 46

Искусство войны / The Art of War
Страна: США, Канада
Жанр: боевик, триллер, криминал, приключения
Год выпуска: 2000
Продолжительность: 01:52:25
Перевод: Профессиональный (многоголосый закадровый)
Cубтитры: нет
Режиссер: Кристиан Дюгэй/Christian Duguay
В ролях: Уэсли Снайпс, Энн Арчер, Мори Чайкин, Мари Матико, Кэри-Хироюки Тагава, Майкл Бьен, Доналд Сазерленд, Лилиана Коморовска, Джеймс Хонг, Пол Хопкинс, Глен Чин, Рон Юан
Описание: Нил Шоу — лучший спецагент секретного подразделения ООН. При выполнении очередного задания он оказывается главным подозреваемым в убийстве китайского посла, которое ставит под угрозу подписание важного соглашения между Китаем и США.
Скрываясь от ФБР и вступая в смертельный бой с китайской триадой, Шоу должен снять с себя подозрение и найти убийцу. Но в мире политических тайн и международных заговоров это становится почти невыполнимой задачей. И врагом может оказаться каждый. А награду получит только тот, кто по-настоящему владеет искусством войны.
Качество видео: DVDRip
Формат видео: AVI
Видео: DivX 6 720x304 (5:4) 25fps [V: mpeg4 advanced simple profile, yuv420p, 720x304]
Аудио: Dolby AC3 48000Hz 6ch 384kbps [A: ac3, 48000 Hz, 5.1, 384 kb/s]

MediaInfo

Общее
Полное имя : E:\Video\The_Art_of_War.avi
Формат : AVI
Формат/Информация : Audio Video Interleave
Размер файла : 1,46 Гбайт
Продолжительность : 1 ч. 52 м.
Общий поток : 1857 Кбит/сек
Программа кодирования : VirtualDubModRus 1.5.10.2 (build 2540/release)
Библиотека кодирования : VirtualDubMod build 2540/release
Видео
Идентификатор : 0
Формат : MPEG-4 Visual
Профиль формата : Advanced [email protected]
Параметр BVOP формата : 2
Параметр QPel формата : Нет
Параметр GMC формата : Без точки перехода
Параметр матрицы формата : Default (MPEG)
Идентификатор кодека : DIVX
Идентификатор кодека/Информация : Project Mayo
Идентификатор кодека/Подсказка : DivX 4
Продолжительность : 1 ч. 52 м.
Битрейт : 1463 Кбит/сек
Ширина : 720 пикселей
Высота : 304 пикселя
Соотношение сторон : 5:4
Соотношение сторон в оригинале : 2,35:1
Частота кадров : 25,000 кадров/сек
Цветовое пространство : YUV
Субдискретизация насыщенности : 4:2:0
Битовая глубина : 8 бит
Тип развёртки : Прогрессивная
Метод сжатия : С потерями
Бит/(Пиксели*Кадры) : 0.267
Размер потока : 1,15 Гбайт (79%)
Библиотека кодирования : XviD 1.2.1 (UTC 2008-12-04)
Аудио
Идентификатор : 1
Формат : AC-3
Формат/Информация : Audio Coding 3
Расширение режима : CM (complete main)
Параметр Endianness формата : Big
Идентификатор кодека : 2000
Продолжительность : 1 ч. 52 м.
Вид битрейта : Постоянный
Битрейт : 384 Кбит/сек
Каналы : 6 каналов
Расположение каналов : Front: L C R, Side: L R, LFE
Частота : 48,0 КГц
Частота кадров : 31,250 кадров/сек (1536 spf)
Метод сжатия : С потерями
Размер потока : 309 Мбайт (21%)
Выравнивание : Соединение по промежуткам
Продолжительность промежутка : 40 мс. (1,00 видеокадр)
Время предзагрузки промежутка : 512 мс.

Скриншот c названием фильма

Скриншоты



Последний раз редактировалось: teddi (2016-03-30 21:26), всего редактировалось 1 раз

Создавать темы 30-Мар-2016 12:45

[Профиль]  [ЛС] 

teddi ®

Стаж: 1 год 6 месяцев

Сообщений: 87

Симпатии: 46

To Moderator:
Сорри, я неправильно указал перевод аудио
Не дублированный, а профессиональный многоголосый закадровый. Пожалуйста исправьте

Комментарий от kat222000


Исправляйте, релиз ваш пока открыт!

Создавать темы 30-Мар-2016 12:58

[Профиль]  [ЛС] 

teddi ®

Стаж: 1 год 6 месяцев

Сообщений: 87

Симпатии: 46

Я нажимаю кнопку Редактировать мне выдается сообщение
Эта опция доступна Модераторам
upd...
Все нашел. Оказывается надо было нажимать на ссылку Опрос Ответить Изменить

Создавать темы 30-Мар-2016 21:29

[Профиль]  [ЛС] 
Показать сообщения:    
Ответить на тему

Текущее время: 17-Окт 22:01

Часовой пояс: UTC + 5



Вы не можете начинать темы
Вы не можете отвечать на сообщения
Вы не можете редактировать свои сообщения
Вы не можете удалять свои сообщения
Вы не можете голосовать в опросах
Вы не можете прикреплять файлы к сообщениям
Вы не можете скачивать файлы