Расплата / Payback (Брайан Хелгеланд/Brian Helgeland) [1999, США, боевик, триллер, драма, криминал, DVDRip] (AVO : Максим Латышев) (Sub Rus)

Ответить на тему
 

teddi ®

Стаж: 1 год 7 месяцев

Сообщений: 87

Симпатии: 46

Расплата / Payback
Страна: США
Жанр: боевик, триллер, драма, криминал
Год выпуска: 1999
Продолжительность: 01:41:20
Перевод: Авторский (одноголосый закадровый) Доп. инфо о переводе Максим Латышев
Перевод: Профессиональный (многоголосый дубляж) Доп. инфо о переводе Профессиональный многоголосый
Перевод: Авторский (одноголосый закадровый) Доп. инфо о переводе Гоблин студия "Полный Пэ"
Cубтитры: русские Латышев
Cубтитры: русские Дубляж
Cубтитры: русские Гоблин
Cубтитры: английские
Режиссер: Брайан Хелгеланд/Brian Helgeland
В ролях: Мел Гибсон, Мария Белло, Люси Лиу, Крис Кристофферсон, Уильям Дивэйн, Джон Гловер, Джек Конли, Дебора Кэра Ангер, Билл Дьюк
Описание: Жил-был негодяй по фамилии Портер. Была у него жена. И приятель. Приятель задолжал серьезным людям денег. И предложил Портеру шваркнуть китайцев, перевозящих выручку. Одновременно подсунул жене Портера фотку, на которой тот запечатлен в интересной ситуации с дамой приятной наружности. Ну и когда дошло до дележа китайских денег, ревнивая жена Портера муженька и подстрелила, гадина бесстыжая.
Далее Портер в мощном исполнении Мэла Гибсона приходит в себя и принимается искать свои денежки, кровные 70 тонн баксов. Мол, чужого мне не надо, но и моего хрен кто получит.
Ну и никакого тебе кривляния. Никаких тупых острот. Злой, как зверь - как и положено бывшему морпеху. Главный герой просто отрывает ухи, ломает пальцы и простреливает бошки. Говорить-то, собственно, и не о чем: верните бабки, твари!: Ну а по ходу беспредельничает: то нищего ограбит, то кошелек стырит, то чужой кредиткой расплатится.
Расплата - редкий пример отличного бандитского боевика без малейшего намека на политкорректность.
Ну а студия "полный Пэ", как обычно, с переводом не подкачала: лучше не бывает!
Качество видео: DVDRip
Формат видео: MKV
Видео: Xvid 720x304 23.976fps [V: [Undetermined]]
Аудио: Dolby AC3 48000Hz 6ch [A: Авторский - Латышев [Russian]]
Аудио 2: Dolby AC3 48000Hz 6ch [A: Многолосый дубляж Лицензия [Russian]]
Аудио 3: Dolby AC3 48000Hz 6ch [A: Авторский - Гоблин [Russian]]
Формат субтитров: softsub (SRT)
Доп. информация о субтитрах: встроенные в mkv

MediaInfo

Общее
Уникальный идентификатор : 228281239127515886674190787843367312522 (0xABBD5E0F16F6C7B2B07CD6854D671C8A)
Полное имя : E:\Video\Rasplata.mkv
Формат : Matroska
Версия формата : Version 4 / Version 2
Размер файла : 2,13 Гбайт
Продолжительность : 1 ч. 41 м.
Общий поток : 3012 Кбит/сек
Дата кодирования : UTC 2013-11-16 15:45:22
Программа кодирования : mkvmerge v6.4.0 ('Pale Blue Dot') built on Sep 15 2013 20:31:57
Библиотека кодирования : libebml v1.3.0 + libmatroska v1.4.1
Видео
Идентификатор : 1
Формат : MPEG-4 Visual
Профиль формата : Advanced [email protected]
Параметр BVOP формата : 1
Параметр QPel формата : Нет
Параметр GMC формата : Без точки перехода
Параметр матрицы формата : Выборочная
Идентификатор кодека : V_MS/VFW/FOURCC / XVID
Идентификатор кодека/Подсказка : XviD
Продолжительность : 1 ч. 41 м.
Битрейт : 1736 Кбит/сек
Ширина : 720 пикселей
Высота : 304 пикселя
Соотношение сторон : 2,35:1
Режим частоты кадров : Постоянный
Частота кадров : 23,976 (23976/1000) кадра/сек
Цветовое пространство : YUV
Субдискретизация насыщенности : 4:2:0
Битовая глубина : 8 бит
Тип развёртки : Прогрессивная
Метод сжатия : С потерями
Бит/(Пиксели*Кадры) : 0.331
Размер потока : 1,23 Гбайт (58%)
Библиотека кодирования : XviD 1.2.1 (UTC 2008-12-04)
Default : Да
Forced : Нет
Аудио #1
Идентификатор : 2
Формат : AC-3
Формат/Информация : Audio Coding 3
Расширение режима : CM (complete main)
Параметр Endianness формата : Big
Идентификатор кодека : A_AC3
Продолжительность : 1 ч. 41 м.
Вид битрейта : Постоянный
Битрейт : 384 Кбит/сек
Каналы : 6 каналов
Расположение каналов : Front: L C R, Side: L R, LFE
Частота : 48,0 КГц
Частота кадров : 31,250 кадров/сек (1536 spf)
Метод сжатия : С потерями
Размер потока : 278 Мбайт (13%)
Заголовок : Авторский - Латышев
Язык : Russian
Default : Да
Forced : Да
Аудио #2
Идентификатор : 3
Формат : AC-3
Формат/Информация : Audio Coding 3
Расширение режима : CM (complete main)
Параметр Endianness формата : Big
Идентификатор кодека : A_AC3
Продолжительность : 1 ч. 41 м.
Вид битрейта : Постоянный
Битрейт : 384 Кбит/сек
Каналы : 6 каналов
Расположение каналов : Front: L C R, Side: L R, LFE
Частота : 48,0 КГц
Частота кадров : 31,250 кадров/сек (1536 spf)
Метод сжатия : С потерями
Размер потока : 278 Мбайт (13%)
Заголовок : Многолосый дубляж Лицензия
Язык : Russian
Default : Нет
Forced : Нет
Аудио #3
Идентификатор : 4
Формат : AC-3
Формат/Информация : Audio Coding 3
Расширение режима : CM (complete main)
Параметр Endianness формата : Big
Идентификатор кодека : A_AC3
Продолжительность : 1 ч. 41 м.
Вид битрейта : Постоянный
Битрейт : 448 Кбит/сек
Каналы : 6 каналов
Расположение каналов : Front: L C R, Side: L R, LFE
Частота : 48,0 КГц
Частота кадров : 31,250 кадров/сек (1536 spf)
Метод сжатия : С потерями
Размер потока : 325 Мбайт (15%)
Заголовок : Авторский - Гоблин
Язык : Russian
Default : Нет
Forced : Нет
Текст #1
Идентификатор : 5
Формат : UTF-8
Идентификатор кодека : S_TEXT/UTF8
Идентификатор кодека/Информация : UTF-8 Plain Text
Заголовок : русские Латышев
Язык : Russian
Default : Да
Forced : Нет
Текст #2
Идентификатор : 6
Формат : PGS
Режим смешивания : zlib
Идентификатор кодека : S_HDMV/PGS
Идентификатор кодека/Информация : Picture based subtitle format used on BDs/HD-DVDs
Заголовок : Русские дубляж
Язык : Russian
Default : Нет
Forced : Нет
Текст #3
Идентификатор : 7
Формат : UTF-8
Идентификатор кодека : S_TEXT/UTF8
Идентификатор кодека/Информация : UTF-8 Plain Text
Заголовок : Русские - Гоблин
Язык : Russian
Default : Нет
Forced : Нет
Текст #4
Идентификатор : 8
Формат : UTF-8
Идентификатор кодека : S_TEXT/UTF8
Идентификатор кодека/Информация : UTF-8 Plain Text
Заголовок : Английские
Язык : English
Default : Нет
Forced : Нет

Скриншот c названием фильма

Скриншоты



Последний раз редактировалось: teddi (2016-04-01 01:46), всего редактировалось 2 раз(а)

Создавать темы 30-Мар-2016 14:09

[Профиль]  [ЛС] 

kat222000

Стаж: 6 лет 7 месяцев

Сообщений: 608

Симпатии: 1055

teddi, Объясните мне, как это Формат видео: MKV, а Видео: Xvid

Создавать темы 30-Мар-2016 21:11

[Профиль]  [ЛС] 

teddi ®

Стаж: 1 год 7 месяцев

Сообщений: 87

Симпатии: 46

фрмат Xvid - это кодек, которым сжат видеопоток
А mkv - это контейнер, который содержит внутри себя видео поток, звуковые дорожки и субтитры.
avi - тоже контейнер

Комментарий от kat222000


Не встречалось мне такое, что бы в mkv - контейнере был Xvid - кодек....
Требования к наполнению контейнера MKV:
Видео дорожек может быть несколько, при этом основная должна быть закодирована с помощью кодеков семейства MPEG4/Part10 или других сопоставимых.
Бывает и такое:
никто не мешает, например, поместить внутрь MKV видео, сжатое"старым добрым" Xvid.
XviD - open source версия DivX, быстро обогнавшая своего "предка" в развитии, не имевшая лицензионных проблем, а также быстро "взятая на вооружение" и производителями оборудования и поставщиками контента.
Наиболее современный и популярный видекодек "поколения MPEG4" в наше время. В качестве контейнера для него чаще всего используется AVI, но иногда и MKV.
Прошу прощения, взято на вооружение!

Создавать темы 30-Мар-2016 21:19

[Профиль]  [ЛС] 

teddi ®

Стаж: 1 год 7 месяцев

Сообщений: 87

Симпатии: 46

Комментарий от kat222000
Не встречалось мне такое, что бы в mkv - контейнере был Xvid - кодек....
Вы меня поймали ;)
Я сам делал mkv, для того, чтобы у меня там было 3 аудио дорожки, и 4 субтитров.
Просто видеопоток не перекодировал в x264.

Создавать темы 30-Мар-2016 21:40

[Профиль]  [ЛС] 

teddi ®

Стаж: 1 год 7 месяцев

Сообщений: 87

Симпатии: 46

Комментарий от kat222000
XviD - open source версия DivX, быстро обогнавшая своего "предка" в развитии, не имевшая лицензионных проблем, а
...
всего используется AVI, но иногда и MKV.
Прошу прощения, взято на вооружение!
Благодарю вас, kat222000!
Вы отличный модератор, самое главное внимательный! У меня могут быть ошибки, потому что инструкции по выкладыванию релизов со скриншотами, а они не всегда показываются, может потому что истекло время хранения на хостинге картинок. Так что я благодарен вам за ваши замечания! Спасибо!

Комментарий от kat222000


Будут вопросы обращайтесь!
Мы все учимся друг у друга!

Создавать темы 30-Мар-2016 21:56

[Профиль]  [ЛС] 
Показать сообщения:    
Ответить на тему

Текущее время: 20-Ноя 20:36

Часовой пояс: UTC + 5



Вы не можете начинать темы
Вы не можете отвечать на сообщения
Вы не можете редактировать свои сообщения
Вы не можете удалять свои сообщения
Вы не можете голосовать в опросах
Вы не можете прикреплять файлы к сообщениям
Вы не можете скачивать файлы