Звёздные войны: Пробуждение силы / Star Wars: Episode VII - The Force Awakens (Джей Джей Абрамс) [2015, США, фантастика, фэнтези, боевик, приключения, HDRip] Dub [iTunes]

Страницы :  1, 2  След.

Ответить на тему
 

lotto ®

Стаж: 7 лет 7 месяцев

Сообщений: 221

Симпатии: 409

Звёздные войны: Пробуждение силы / Star Wars: Episode VII - The Force Awakens
«Every generation has a story»
-- --Страна: США
Жанр: фантастика, фэнтези, боевик, приключения
Год выпуска: 2015
Продолжительность: 02:18:07
Перевод: Профессиональный (дублированный) [iTunes]
Cубтитры: нет--Режиссер: Джей Джей Абрамс
В ролях: Джон Бойега, Дэйзи Ридли, Оскар Айзек, Адам Драйвер, Донал Глисон, Харрисон Форд, Марк Хэмилл, Кэрри Фишер, Макс фон Сюдов, Энди Серкис--Описание: Через тридцать лет после гибели Дарта Вейдера и Императора галактика по-прежнему в опасности. Государственное образование Первый Орден во главе с их таинственным верховным лидером Сноуком и его правой рукой Кайло Реном идёт по стопам Империи, пытаясь захватить всю власть. В это нелёгкое время судьба сводит юную девушку Рей и бывшего штурмовика Первого Ордена Финна с героями времён войны с Империей — Ханом Соло, Чубаккой и генералом Леей. Вместе они должны дать бой Первому Ордену, однако настаёт тот момент, когда становится очевидно, что лишь джедаи могут остановить Сноука и Кайло Рена. И в галактике в живых остаётся только один…-- --Качество видео: HDRip
Формат видео: AVI
Видео: Xvid 720x304 23.976fps 1119kbps
Аудио: AC3 48000Hz 6ch 384kbps (русский, дублированный)

MediaInfo

General
Complete name : starwars.2016.1.46.HDRip.avi
Format : AVI
Format/Info : Audio Video Interleave
File size : 1.46 GiB
Duration : 2h 18mn
Overall bit rate : 1 513 Kbps
Writing application : VirtualDubModRus 1.5.10.2 (build 2542/release)
Writing library : VirtualDubMod build 2542/release
Video
ID : 0
Format : MPEG-4 Visual
Format profile : Advanced [email protected]
Format settings, BVOP : 1
Format settings, QPel : No
Format settings, GMC : No warppoints
Format settings, Matrix : Default (MPEG)
Codec ID : XVID
Codec ID/Hint : XviD
Duration : 2h 18mn
Bit rate : 1 119 Kbps
Width : 720 pixels
Height : 304 pixels
Display aspect ratio : 2.35:1
Frame rate : 23.976 (23976/1000) fps
Color space : YUV
Chroma subsampling : 4:2:0
Bit depth : 8 bits
Scan type : Progressive
Compression mode : Lossy
Bits/(Pixel*Frame) : 0.213
Stream size : 1.08 GiB (74%)
Writing library : XviD 1.2.1 (UTC 2008-12-04)
Audio
ID : 1
Format : AC-3
Format/Info : Audio Coding 3
Mode extension : CM (complete main)
Format settings, Endianness : Big
Codec ID : 2000
Duration : 2h 18mn
Bit rate mode : Constant
Bit rate : 384 Kbps
Channel(s) : 6 channels
Channel positions : Front: L C R, Side: L R, LFE
Sampling rate : 48.0 KHz
Frame rate : 31.250 fps (1536 spf)
Compression mode : Lossy
Stream size : 379 MiB (25%)
Alignment : Split accross interleaves
Interleave, duration : 42 ms (1.00 video frame)
Interleave, preload duration : 500 ms

Скриншот c названием фильма

Скриншоты







Последний раз редактировалось: lotto (2016-04-02 07:55), всего редактировалось 2 раз(а)

Создавать темы 01-Апр-2016 02:13

[Профиль]  [ЛС] 

gold_man

Стаж: 7 лет 11 месяцев

Сообщений: 162

Симпатии: 18

я понял почему убрали ?*

Создавать темы 01-Апр-2016 08:02

[Профиль]  [ЛС] 

Gen-X

Стаж: 4 года 7 месяцев

Сообщений: 125

Симпатии: 56

дайте торрент файл или хотябы аудио дорожку в ФО

Создавать темы 01-Апр-2016 10:18

[Профиль]  [ЛС] 

nikita

Стаж: 6 лет 10 месяцев

Сообщений: 82

Симпатии: 4

джойказины нету?????

Создавать темы 01-Апр-2016 12:04

[Профиль]  [ЛС] 

Gen-X

Стаж: 4 года 7 месяцев

Сообщений: 125

Симпатии: 56

971248джойказины нету?????
если тебе нужно джайказино, то добавь 1,2,3,...9 после джойказино и играй. (1 апреля)

Создавать темы 01-Апр-2016 12:37

[Профиль]  [ЛС] 

lotto ®

Стаж: 7 лет 7 месяцев

Сообщений: 221

Симпатии: 409

Это лицензия, без рекламы.
Злой казлино бывает на пиратском звуке.

Создавать темы 01-Апр-2016 12:55

[Профиль]  [ЛС] 

gold_man

Стаж: 7 лет 11 месяцев

Сообщений: 162

Симпатии: 18

971253Это лицензия, без рекламы.
Злой казлино бывает на пиратском звуке.
хД ag

Создавать темы 01-Апр-2016 14:11

[Профиль]  [ЛС] 

Star Line

Стаж: 3 года 10 месяцев

Сообщений: 136

Симпатии: 26

Почему у меня вот такая проблема? Выделенных вложений больше не существует.
files/m0NOQ1_starwars.2016.1.46.HDRip.avi.torrent
Файл отсутствует на сервере!

Создавать темы 01-Апр-2016 19:44

[Профиль]  [ЛС] 

Star Line

Стаж: 3 года 10 месяцев

Сообщений: 136

Симпатии: 26

lotto, Может что-то тронули?

Создавать темы 01-Апр-2016 19:48

[Профиль]  [ЛС] 

kat222000

Стаж: 6 лет 4 месяца

Сообщений: 608

Симпатии: 1055

lotto, Здравствуйте! А где торрент файл?

Создавать темы 01-Апр-2016 20:11

[Профиль]  [ЛС] 

lotto ®

Стаж: 7 лет 7 месяцев

Сообщений: 221

Симпатии: 409

971293lotto, Здравствуйте! А где торрент файл?
Ночью был глюк. Вместо одной темы создалось пять!
Заново создал торрент.

Создавать темы 01-Апр-2016 21:45

[Профиль]  [ЛС] 

kat222000

Стаж: 6 лет 4 месяца

Сообщений: 608

Симпатии: 1055

Может и в 60fps залить? Будут желающие скачивать?

Создавать темы 01-Апр-2016 22:05

[Профиль]  [ЛС] 

Ilham

Стаж: 6 лет 6 месяцев

Сообщений: 103

Симпатии: 3

Дедпула нет у вас в 60 кадров в секунду?

Комментарий от kat222000


Дедпула ещё даже в хорошем качестве пока нет, только WebRip.

Создавать темы 01-Апр-2016 23:30

[Профиль]  [ЛС] 

Powered by GMC

Стаж: 1 год 10 месяцев

Сообщений: 202

Симпатии: 31

стрий фильмы быль норм! спс за релиз но филым не очем не говорить!

Создавать темы 03-Апр-2016 18:36

[Профиль]  [ЛС] 

Powered by GMC

Стаж: 1 год 10 месяцев

Сообщений: 202

Симпатии: 31

Дедпул класс!

Создавать темы 03-Апр-2016 18:37

[Профиль]  [ЛС] 
Показать сообщения:    
Ответить на тему

Текущее время: 19-Авг 21:54

Часовой пояс: UTC + 5



Вы не можете начинать темы
Вы не можете отвечать на сообщения
Вы не можете редактировать свои сообщения
Вы не можете удалять свои сообщения
Вы не можете голосовать в опросах
Вы не можете прикреплять файлы к сообщениям
Вы не можете скачивать файлы