Вечный отпуск / Сезон: 1 / Серии: 1-24 из 24 (Валентина Власова) [2016, Комедия, SATRip]

Ответить на тему
 

Mamutov ®

Стаж: 4 года 7 месяцев

Сообщений: 255

Симпатии: 144

Вечный отпуск Год выпуска: 2016
Производство: Россия, Nautilus Media
Жанр: Комедия
Продолжительность: ~25 мин
Субтитры: нет
Режиссёр: Валентина Власова
В ролях: Константин Крюков, Валерия Федорович, Ян Цапник, Дмитрий Астрахан, Светлана Первушина, Илья Гимрат-Курик, Алина Алексеева (II), Дмитрий Белякин, Катарина Шпиринг, Фабиен Лучиарини, Пётр Винс, Оксана Сидоренко, Александр Красуля, Полина Сидихина, Роман Индык, Вера Строкова, Елена Муравьёва, Юлия Ковалёва, Пьер Бурель, Эрик Болин, Сергей Ююкин

Описание: Андрей Соколов и Саша Кравцова познакомились на теплоходе. Он работал помощником капитана, а она с размахом отмечала день рождения. Вечеринка оказалась настолько зажигательной, что корабль сгорел. Андрей потерял работу, а Сашу в воспитательных целях папа-олигарх отправляет работать горничной на один из своих круизных лайнеров. Теперь ее ждет год в окружении морских пейзажей, интернациональной команды, неубранных кают и старого знакомого — ассистента директора круиза… Андрея Соколова. Это будет очень-очень долгий год.
Качество: SATRip
Формат: AVI
Видео кодек: XviD
Аудио кодек: MP3
Видео: 720x400 (1.80:1), 25 fps, XviD MPEG-4, 1803 kbps avg, 0.25 bit/pixel
Аудио: 48 kHz, MPEG Layer 3, 2 ch, 192 Кбит/с

✘ MediaInfo ✘

Видео
Идентификатор : 0
Формат : MPEG-4 Visual
Профиль формата : Advanced [email protected]
Параметр BVOP формата : 2
Параметр QPel формата : Нет
Параметр GMC формата : Без точки перехода
Параметр матрицы формата : Default (MPEG)
Идентификатор кодека : XVID
Идентификатор кодека/Подсказка : XviD
Продолжительность : 24 м.
Битрейт : 1803 Кбит/сек
Ширина : 720 пикселей
Высота : 400 пикселей
Соотношение сторон : 16:9
Частота кадров : 25,000 кадров/сек
Цветовое пространство : YUV
Субдискретизация насыщенности : 4:2:0
Битовая глубина : 8 бит
Тип развёртки : Прогрессивная
Метод сжатия : С потерями
Бит/(Пиксели*Кадры) : 0.250
Размер потока : 319 Мбайт (90%)
Библиотека кодирования : XviD 73
Аудио
Идентификатор : 1
Формат : MPEG Audio
Версия формата : Version 1
Профиль формата : Layer 3
Режим : Joint stereo
Идентификатор кодека : 55
Идентификатор кодека/Подсказка : MP3
Продолжительность : 24 м.
Вид битрейта : Постоянный
Битрейт : 192 Кбит/сек
Каналы : 2 канала
Частота : 48,0 КГц
Метод сжатия : С потерями
Размер потока : 33,9 Мбайт (10%)
Выравнивание : Разделение по промежуткам
Продолжительность промежутка : 40 мс. (1,00 видеокадр)
Время предзагрузки промежутка : 500 мс.

✘ Скриншоты ✘



✘ Раздача ведется путем добавления новых серий ✘

Когда раздача ведётся путём добавления новых серий, при каждом добавлении создётся новый торрент. Чтобы начать докачку новой серии, пользователям необходимо сделать следующее:
(1) остановить скачивание,
(2) удалить старый торрент у себя из клиента (старые серии удалять не надо),
(3) скачать новый торрент и запустить его у себя в клиенте вместо старого, при этом указать клиенту путь в старую папку, куда и должно происходить скачивание новых серий.
Ваш клиент при этом должен произвести хеширование (проверку) старой папки (если не производит сам - помогите ему сделать это), и будет докачивать только те серии, которых у вас ещё нет. Старые серии при этом не удаляются, а продолжают раздаваться!
Eсли вы уже удалили старые серии, то предотвратить повторную закачку старых серий можно, отжав галочку в соответсвующих местах при запуске нового торрента. По возможности, желательно не удалять старые серии как можно дольше, чтобы релизёр не столько продолжал раздавать старые серии, а смог сконцентрироваться на новых.
 


Последний раз редактировалось: Mamutov (2016-05-27 10:25), всего редактировалось 10 раз(а)

Создавать темы 01-Апр-2016 08:13

[Профиль]  [ЛС] 

Mamutov ®

Стаж: 4 года 7 месяцев

Сообщений: 255

Симпатии: 144

10 серия

Создавать темы 05-Апр-2016 08:58

[Профиль]  [ЛС] 

Mamutov ®

Стаж: 4 года 7 месяцев

Сообщений: 255

Симпатии: 144

обновлено до 13 серий

Создавать темы 10-Апр-2016 00:19

[Профиль]  [ЛС] 

Mamutov ®

Стаж: 4 года 7 месяцев

Сообщений: 255

Симпатии: 144

14 серия

Создавать темы 12-Апр-2016 00:10

[Профиль]  [ЛС] 

Mamutov ®

Стаж: 4 года 7 месяцев

Сообщений: 255

Симпатии: 144

обновлено до 17 серий

Создавать темы 16-Апр-2016 00:21

[Профиль]  [ЛС] 

Mamutov ®

Стаж: 4 года 7 месяцев

Сообщений: 255

Симпатии: 144

18 серия

Создавать темы 19-Апр-2016 07:39

[Профиль]  [ЛС] 

inkus

Стаж: 7 лет 3 месяца

Сообщений: 50

Симпатии: 39

97235518 серия
не бросайте данный сериал! мы ждем продолжение)) aa

Создавать темы 28-Апр-2016 19:46

[Профиль]  [ЛС] 

irina777

Стаж: 5 лет 6 месяцев

Сообщений: 7

А где остальные серии?

Создавать темы 29-Апр-2016 08:36

[Профиль]  [ЛС] 

Mamutov ®

Стаж: 4 года 7 месяцев

Сообщений: 255

Симпатии: 144

добавлено все серий конец сезона

Создавать темы 01-Май-2016 22:57

[Профиль]  [ЛС] 
Показать сообщения:    
Ответить на тему

Текущее время: 20-Авг 20:13

Часовой пояс: UTC + 5



Вы не можете начинать темы
Вы не можете отвечать на сообщения
Вы не можете редактировать свои сообщения
Вы не можете удалять свои сообщения
Вы не можете голосовать в опросах
Вы не можете прикреплять файлы к сообщениям
Вы не можете скачивать файлы