Дежавю / Deja Vu (Тони Скотт / Tony Scott) [2006, США, Великобритания, фантастика, боевик, триллер, BDRip] (Dub) (Sub Original Eng +12 other)

Ответить на тему
 

teddi ®

Стаж: 1 год 7 месяцев

Сообщений: 87

Симпатии: 46

Дежавю / Deja Vu
Страна: США, Великобритания
Жанр: фантастика, боевик, триллер
Год выпуска: 2006
Продолжительность: 02:05:44
Перевод: Профессиональный (дублированный)
Cубтитры: Английские, и еще 12 других языков, русских нет
Оригинальная аудиодорожка: английский
Режиссер: Тони Скотт / Tony Scott
В ролях: Дензел Вашингтон, Пола Пэттон, Вэл Килмер, Джеймс Кэвизел, Адам Голдберг, Элден Хенсон, Эрика Александр, Брюс Гринвуд, Рич Хатчмэн, Мэтт Крэвен
Описание: Каждый из нас хотя бы раз в жизни испытывал эффект дежа вю, когда нам вдруг начинает казаться, что мы знакомы с людьми, которых на самом деле раньше никогда не видели, и уже бывали в местах, где на самом деле никогда не были. И, возможно, в такие моменты кому-то приходила в голову мысль, что эти ощущения — не что иное, как предупреждения, посланные нам из прошлого, а может быть, и ключ к познанию будущего.
Агент АТФ Даг Карлин получает возможность совершать путешествия во времени, расследуя обстоятельства взрыва, произошедшего на новоорлеанском пароме. Оказавшись в прошлом, он встречает женщину, которую должны убить, и в итоге влюбляется в нее…
Доп. информация: Subtitle: Advanced SubStation Alpha [S: [English]]
Subtitle: Advanced SubStation Alpha [S: [Romanian]]
Subtitle: Advanced SubStation Alpha [S: [Swedish]]
Subtitle: Advanced SubStation Alpha [S: [Finnish]]
Subtitle: Advanced SubStation Alpha [S: [Danish]]
Subtitle: Advanced SubStation Alpha [S: [French]]
Subtitle: Advanced SubStation Alpha [S: [Spanish]]
Subtitle: Advanced SubStation Alpha [S: [Portuguese]]
Subtitle: Advanced SubStation Alpha [S: [Polish]]
Subtitle: Advanced SubStation Alpha [S: [Hungarian]]
Subtitle: Advanced SubStation Alpha [S: [Slovenian]]
Subtitle: Advanced SubStation Alpha [S: [Serbian]]
Subtitle: Advanced SubStation Alpha [S: [Hebrew]]
Качество видео: BDRip
Формат видео: MKV
Видео: MPEG4, H.264, 1920x800, 23976 fps, 9280 Kbps
Аудио: Dolby AC3 48000Hz 6ch [A: AC3, 6ch 384 kbps [Russian]]
Аудио 2: Dolby AC3 48000Hz 6ch [A: AC3, 6ch 640 kbps [English]]
Формат субтитров: softsub (SSA/ASS)

MediaInfo

Общее
Уникальный идентификатор : 235560704678575011000188453889494028318 (0xB137576BA2C6879988EA561C03B5101E)
Полное имя : E:\Video\FullHD\denzel\dejavu.mkv
Формат : Matroska
Версия формата : Version 1
Размер файла : 9,06 Гбайт
Продолжительность : 2 ч. 6 м.
Общий поток : 10,3 Мбит/сек
Название фильма : -=HANSMER=-
Дата кодирования : UTC 2008-01-13 17:06:04
Программа кодирования : mkvmerge v2.0.2 ('You're My Flame') built on Aug 15 2007 20:05:20
Библиотека кодирования : libebml v0.7.7 + libmatroska v0.8.1
Attachments : TCCEB.TTF / times.ttf
Видео
Идентификатор : 1
Формат : AVC
Формат/Информация : Advanced Video Codec
Профиль формата : [email protected]
Параметр CABAC формата : Да
Параметр ReFrames формата : 9 кадров
Идентификатор кодека : V_MPEG4/ISO/AVC
Продолжительность : 2 ч. 6 м.
Битрейт : 9280 Кбит/сек
Ширина : 1920 пикселей
Высота : 800 пикселей
Соотношение сторон : 2,40:1
Режим частоты кадров : Постоянный
Частота кадров : 23,976 кадра/сек
Цветовое пространство : YUV
Субдискретизация насыщенности : 4:2:0
Битовая глубина : 8 бит
Тип развёртки : Прогрессивная
Бит/(Пиксели*Кадры) : 0.252
Размер потока : 7,98 Гбайт (88%)
Заголовок : Deja.Vu.2006.1080p.BluRay.x264
Библиотека кодирования : x264 core 54 svn-635M
Настройки программы : cabac=1 / ref=6 / deblock=1:-1:-1 / analyse=0x3:0x133 / me=umh / subme=7 / brdo=1 / mixed_ref=1 / me_range=24 / chroma_me=1 / trellis=1 / 8x8dct=1 / cqm=2 / deadzone=21,11 / chroma_qp_offset=0 / threads=2 / nr=0 / decimate=0 / mbaff=0 / bframes=4 / b_pyramid=1 / b_adapt=1 / b_bias=0 / direct=1 / wpredb=1 / bime=1 / keyint=250 / keyint_min=25 / scenecut=40(pre) / rc=2pass / bitrate=9280 / ratetol=1.0 / rceq='blurCplx^(1-qComp)' / qcomp=0.60 / qpmin=10 / qpmax=51 / qpstep=4 / cplxblur=20.0 / qblur=0.5 / ip_ratio=1.40 / pb_ratio=1.30 / aq=1:0.8:18.0
Язык : English
Default : Да
Forced : Нет
Аудио #1
Идентификатор : 2
Формат : AC-3
Формат/Информация : Audio Coding 3
Расширение режима : CM (complete main)
Параметр Endianness формата : Big
Идентификатор кодека : A_AC3
Продолжительность : 2 ч. 6 м.
Вид битрейта : Постоянный
Битрейт : 384 Кбит/сек
Каналы : 6 каналов
Расположение каналов : Front: L C R, Side: L R, LFE
Частота : 48,0 КГц
Частота кадров : 31,250 кадров/сек (1536 spf)
Метод сжатия : С потерями
Размер потока : 347 Мбайт (4%)
Заголовок : AC3, 6ch 384 kbps
Язык : Russian
Default : Да
Forced : Нет
Аудио #2
Идентификатор : 3
Формат : AC-3
Формат/Информация : Audio Coding 3
Расширение режима : CM (complete main)
Параметр Endianness формата : Big
Идентификатор кодека : A_AC3
Продолжительность : 2 ч. 6 м.
Вид битрейта : Постоянный
Битрейт : 640 Кбит/сек
Каналы : 6 каналов
Расположение каналов : Front: L C R, Side: L R, LFE
Частота : 48,0 КГц
Частота кадров : 31,250 кадров/сек (1536 spf)
Метод сжатия : С потерями
Размер потока : 579 Мбайт (6%)
Заголовок : AC3, 6ch 640 kbps
Язык : English
Default : Нет
Forced : Нет
Текст #1
Идентификатор : 4
Формат : ASS
Идентификатор кодека : S_TEXT/ASS
Идентификатор кодека/Информация : Advanced Sub Station Alpha
Метод сжатия : Без потерь
Язык : English
Default : Да
Forced : Нет
Текст #2
Идентификатор : 5
Формат : ASS
Идентификатор кодека : S_TEXT/ASS
Идентификатор кодека/Информация : Advanced Sub Station Alpha
Метод сжатия : Без потерь
Язык : Romanian
Default : Нет
Forced : Нет
Текст #3
Идентификатор : 6
Формат : ASS
Идентификатор кодека : S_TEXT/ASS
Идентификатор кодека/Информация : Advanced Sub Station Alpha
Метод сжатия : Без потерь
Язык : Swedish
Default : Нет
Forced : Нет
Текст #4
Идентификатор : 7
Формат : ASS
Идентификатор кодека : S_TEXT/ASS
Идентификатор кодека/Информация : Advanced Sub Station Alpha
Метод сжатия : Без потерь
Язык : Finnish
Default : Нет
Forced : Нет
Текст #5
Идентификатор : 8
Формат : ASS
Идентификатор кодека : S_TEXT/ASS
Идентификатор кодека/Информация : Advanced Sub Station Alpha
Метод сжатия : Без потерь
Язык : Danish
Default : Нет
Forced : Нет
Текст #6
Идентификатор : 9
Формат : ASS
Идентификатор кодека : S_TEXT/ASS
Идентификатор кодека/Информация : Advanced Sub Station Alpha
Метод сжатия : Без потерь
Язык : French
Default : Нет
Forced : Нет

Скриншот c названием фильма

Скриншоты



Последний раз редактировалось: teddi (2016-04-02 01:24), всего редактировалось 2 раз(а)

Создавать темы 01-Апр-2016 10:28

[Профиль]  [ЛС] 

Топик был перенесен из форума HD-AVC в форум Зарубежное кино
kat222000

Создавать темы 01-Апр-2016 20:08

 

kat222000

Стаж: 6 лет 7 месяцев

Сообщений: 608

Симпатии: 1055

teddi, битрейт видео укажите.
Шаблон для оформления релиза Кино
Видео: разрешение кадра (в пикселях), значение видеобитрейта (kbps) и частота кадров в секунду (fps) (пример720х304 , 23.976 fps, 1773 Kbps )

Создавать темы 01-Апр-2016 22:47

[Профиль]  [ЛС] 

teddi ®

Стаж: 1 год 7 месяцев

Сообщений: 87

Симпатии: 46

kat222000,
Извините меня, никогда не думал, что буду так долго замыкать.
Я думал, что я предоставил всю информацию для тех кому это необходимо,
Так как все это есть в MediaInfo.
Битрейт : 9280 Кбит/сек
Ширина : 1920 пикселей
Высота : 800 пикселей
Соотношение сторон : 2,40:1
Режим частоты кадров : Постоянный
Частота кадров : 23,976 кадра/сек
Думаете так будет лучше
Было - Видео: MPEG4 Video (H264) 1920x800 23.976fps [V: Deja.Vu.2006.1080p.BluRay.x264 [English]]
Станет - Видео:1920x800, 23976 fps, 9280 Kbps
Вроде бы эта информация была нужна тем, кто например хочет смотреть файл на телевизоре или медиаплеере и ему надо знать, будет ли воспроизводить этот фильм его плеер либо смарт телевизор
Чтобы если по параметрам не будет проходить, он просто не будет его качать. А будет искать подходящий. Так вот, повторюсь, эта информация есть в MediaInfo
Если я вас не утомил, то еще такой вопрос
Непонятно, что имеется в виду HD-avc и HD?
Почему бы не сделать подраздел HD - для 720p и Full HD для 1080p релизов.
Если у пользователя слабый канал он даже не будет заходить в раздел с Full HD релизами
А так я поглядел, перед тем куда выложить фильм и смотрю, что 1920х1080, есть и в HD и в HD-AVC
Теперь вижу, что он перенесен в раздел Зарубежное Кино. be

Создавать темы 02-Апр-2016 00:21

[Профиль]  [ЛС] 

mo^st

Стаж: 5 лет 9 месяцев

Сообщений: 2

teddi, Я никак не пойму. Или вы сидируете много раздач, или у Вас Dial-up соединение? Такая маленькая скорость (0,4 kb/s) даже ночью.

Создавать темы 05-Апр-2016 06:52

[Профиль]  [ЛС] 

teddi ®

Стаж: 1 год 7 месяцев

Сообщений: 87

Симпатии: 46

971618teddi, Я никак не пойму. Или вы сидируете много раздач, или у Вас Dial-up соединение? Такая маленькая скорость (0,4 kb/s) даже ночью.
Доброго времени суток!
Скажите пожалуйста, вы можете ввести в торрент-клиент свой внутренний айпишник? Я вижу, что у вас 95.46.92.108, а тот который внутренней сети провайдера
в uTorrente - Настройки - Конфигурация - Bittorrent - в поле IP/Имя сервера для трекера
Вот например что писал пользователь taiszi
================= цитата=================
teddi - У меня Узонлайн. Может в этом проблема?
taiszi - Разумеется, в этом. Попробуйте вписать свой IP-адрес (нужно делать при каждом подключении) в окно в настройках -> BitTorrent. У меня, например, сейчас 10.8.143.207.
================= Конец цитаты=============

Создавать темы 05-Апр-2016 11:54

[Профиль]  [ЛС] 

teddi ®

Стаж: 1 год 7 месяцев

Сообщений: 87

Симпатии: 46

Привет, всем!
Как вам фильм? что-то никто не пишет свои ощущения от фильмов. Никаких эмоций? ;)

Создавать темы 15-Апр-2016 01:16

[Профиль]  [ЛС] 
Показать сообщения:    
Ответить на тему

Текущее время: 21-Ноя 07:30

Часовой пояс: UTC + 5



Вы не можете начинать темы
Вы не можете отвечать на сообщения
Вы не можете редактировать свои сообщения
Вы не можете удалять свои сообщения
Вы не можете голосовать в опросах
Вы не можете прикреплять файлы к сообщениям
Вы не можете скачивать файлы