Ты-мне, я-тебе (Александр Серый) [1976, Комедия, DVDRip]

Ответить на тему
 

фазилов ®

Стаж: 3 года 8 месяцев

Сообщений: 310

Симпатии: 344

ТЫ-МНЕ, Я-ТЕБЕ
Жанр: Комедия
Год выпуска: 1976
Продолжительность: 01:21:45
Режиссёр: Александр Серый
В ролях: Леонид Куравлев, Татьяна Пельтцер, Евгений Шутов, Валентина Карева, Вера Бурлакова, Людмила Карауш, Валерий Носик, Юрий Леонидов, Ян Янакиев, Илья Рутберг, Эммануил Геллер, Юрий Медведев, Светлана Светличная, Николай Горлов, Николай Сморчков, Алла Мещерякова, Роман Ткачук
Описание: Гроза браконьеров инспектор Рыбнадзора Сергей Кашкин, отличающийся редкой принципиальностью и неподкупностью, в самый неподходящий момент попадает в больницу. Чтобы нарушители не воспользовались его отсутствием, руководство Рыбнадзора просит его брата-близнеца Ивана, столичного банщика, заменить Сергея, появляясь на его участке в инспекторской форме. Браконьеры, ободренные известием о болезни Кашкина, вновь присмирели, но ненадолго: Ваня, живущий по принципу «ты - мне, я - тебе», быстро находит с ними общий язык…
Доп. информация: Киностудия "Мосфильм" Четвёртое творческое объединение
Качество видео: DVDRip
Формат видео: AVI
Видео: 624x304 (2.05:1), 25 fps,XviD, ATI YVU12 4:2:0 Planar ~1070 kbps avg
Аудио: 48 kHz, MPEG Layer 3, 2 ch, ~192.00 kbps avg

MediaInfo

General
Complete name : D:\Мои релизы\Ты-мне, я -тебе.avi
Format : AVI
Format/Info : Audio Video Interleave
File size : 744 MiB
Duration : 1h 21mn
Overall bit rate : 1 272 Kbps
Writing application : VirtualDubMod 1.5.4.1 (build 2178/release)
Writing library : VirtualDubMod build 2178/release
Video
ID : 0
Format : MPEG-4 Visual
Format profile : Advanced [email protected]
Format settings, BVOP : 1
Format settings, QPel : No
Format settings, GMC : No warppoints
Format settings, Matrix : Custom
Codec ID : XVID
Codec ID/Hint : XviD
Duration : 1h 21mn
Bit rate : 1 070 Kbps
Width : 624 pixels
Height : 304 pixels
Display aspect ratio : 2.053
Frame rate : 25.000 fps
Color space : YUV
Chroma subsampling : 4:2:0
Bit depth : 8 bits
Scan type : Progressive
Compression mode : Lossy
Bits/(Pixel*Frame) : 0.226
Stream size : 626 MiB (84%)
Writing library : XviD 1.2.0.dev47 (UTC 2006-11-01)
Audio
ID : 1
Format : MPEG Audio
Format version : Version 1
Format profile : Layer 3
Mode : Joint stereo
Mode extension : MS Stereo
Codec ID : 55
Codec ID/Hint : MP3
Duration : 1h 21mn
Bit rate mode : Constant
Bit rate : 192 Kbps
Channel(s) : 2 channels
Sampling rate : 48.0 KHz
Compression mode : Lossy
Stream size : 112 MiB (15%)
Alignment : Aligned on interleaves
Interleave, duration : 40 ms (1.00 video frame)
Interleave, preload duration : 504 ms
Writing library : LAME3.97
Encoding settings : -m j -V 4 -q 2 -lowpass 18.6 -b 192

Скриншот c названием фильма

Скриншоты



Последний раз редактировалось: фазилов (2016-04-01 14:35), всего редактировалось 1 раз

Создавать темы 01-Апр-2016 11:52

[Профиль]  [ЛС] 

фазилов ®

Стаж: 3 года 8 месяцев

Сообщений: 310

Симпатии: 344

aq Возможны перерывы в раздаче в связи с частыми отключениями электроэнергии aq
УО-прописывайте свой IP-адрес в торрент-клиенте. aa

Создавать темы 01-Апр-2016 12:23

[Профиль]  [ЛС] 
Показать сообщения:    
Ответить на тему

Текущее время: 22-Окт 09:49

Часовой пояс: UTC + 5



Вы не можете начинать темы
Вы не можете отвечать на сообщения
Вы не можете редактировать свои сообщения
Вы не можете удалять свои сообщения
Вы не можете голосовать в опросах
Вы не можете прикреплять файлы к сообщениям
Вы не можете скачивать файлы