Кунг-фу Панда: Трилогия / Kung Fu Panda: Trilogy (Марк Осборн, Джон Стивенсон,Алессандро Карлони, Дженнифер Ю.,) [2008, 2011, 2016., США., боевик, комедия, семейный, мультфильм., BDRip,WEB-DLRip] (MVO)

Ответить на тему
 

ruhal ®

Стаж: 2 года 5 месяцев

Сообщений: 1181

Симпатии: 1836

- -Кунг-фу Панда: Трилогия / Kung Fu Panda: Trilogy- -

Кунг-фу Панда / Kung Fu Panda (2008)

- -Кунг-фу Панда / Kung Fu Panda- Страна: США
Жанр: боевик, комедия, семейный, мультфильм
Год выпуска: 2008
Продолжительность: 01:28:03
Перевод: Профессиональный (многоголосый закадровый)-Режиссер: Марк Осборн, Джон Стивенсон-В ролях: Джек Блэк;Дастин Хоффман;Анджелина Джоли;
Йен МакШейн;Джеки Чан;Сет Роген;Люси Лью;Дэвид Кросс;Рэндолл Дак Ким;Джеймс Хон-Описание: Спасение Долины Мира и всех ее обитателей от непобедимого и безжалостного мастера Тай Лунга должно лечь на плечи Воина Дракона, Избранного среди лучших из лучших, коим становится… неуклюжий, ленивый и вечно голодный панда По.
Ему предстоит долгий и трудный путь к вершинам мастерства Кунг-фу бок о бок с легендарными воинами: Тигрой, Обезьяной, Богомолом, Гадюкой и Журавлем. По постигнет тайну древнего Свитка и станет Воином Дракона только в том случае, если сможет поверить в себя…-Качество видео: BDRip
Формат видео: AVI
Видео: Xvid 720x304 25fps 1919kbps
Аудио: Dolby AC3 48000Hz 6ch 448kbps-

MediaInfo

General
Complete name : D:\Films\kung - fu panda trilogy\kungfu_panda_2_bdrip.avi
Format : AVI
Format/Info : Audio Video Interleave
File size : 1.46 GiB
Duration : 1h 30mn
Overall bit rate : 2 305 Kbps
Movie name : Kung Fu Panda 2 (2011)
Director : Vaippp
Genre : Action/Adventure
Writing application : VirtualDubModRus 1.5.10.2 (build 2542/release)
Original source form/Name : Cartoon
Copyright : HQ-ViDEO
Comment : BDRip
Video
ID : 0
Format : MPEG-4 Visual
Format profile : Advanced [email protected]
Format settings, BVOP : 1
Format settings, QPel : No
Format settings, GMC : No warppoints
Format settings, Matrix : Custom
Codec ID : XVID
Codec ID/Hint : XviD
Duration : 1h 30mn
Bit rate : 1 847 Kbps
Width : 720 pixels
Height : 304 pixels
Display aspect ratio : 2.35:1
Frame rate : 23.976 fps
Color space : YUV
Chroma subsampling : 4:2:0
Bit depth : 8 bits
Scan type : Progressive
Compression mode : Lossy
Bits/(Pixel*Frame) : 0.352
Stream size : 1.17 GiB (80%)
Writing library : XviD 64
Audio
ID : 1
Format : AC-3
Format/Info : Audio Coding 3
Mode extension : CM (complete main)
Format settings, Endianness : Big
Codec ID : 2000
Duration : 1h 30mn
Bit rate mode : Constant
Bit rate : 448 Kbps
Channel(s) : 6 channels
Channel positions : Front: L C R, Side: L R, LFE
Sampling rate : 48.0 KHz
Compression mode : Lossy
Stream size : 290 MiB (19%)
Alignment : Split accross interleaves
Interleave, duration : 42 ms (1.00 video frame)
Interleave, preload duration : 500 ms

Скриншот c названием фильма

Скриншоты




Кунг-фу Панда 2 / Kung Fu Panda 2 (2011)

- -Кунг-фу Панда 2 / Kung Fu Panda 2- Год выпуска: 2011
Страна: США
Жанр: мультфильм, боевик, комедия, приключения, семейный
Продолжительность: 01:30:23
Перевод: Профессиональный (многоголосый закадровый)-Режиссер: Дженнифер Ю-В ролях: Анджелина Джоли, Гари Олдман, Сет Роген, Жан-Клод Ван Дамм, Джек Блэк,
Джеки Чан, Дастин Хоффман, Дэвид Кросс, Люси Лью, Мишель Йео-Описание: Панда По наконец-то исполнит свою мечту, станет Воином Дракона и
со своими друзьями и мастерами кунг-фу - Неистовой Пятеркой - защитит Великую Долину от страшного злодея и его легиона...-Качество: BDRip
Формат: AVI
Видео : Xvid 720x304 23.976fps 1847kbps
Аудио : Dolby AC3 48000Hz 6ch 448kbps-

MediaInfo

General
Complete name : D:\Films\kung - fu panda trilogy\kungfu_panda_bdrip.avi
Format : AVI
Format/Info : Audio Video Interleave
File size : 1.46 GiB
Duration : 1h 28mn
Overall bit rate : 2 377 Kbps
Movie name : Кунг-фу Панда / Kung Fu Panda (2008)
Director : SENATOR (Credits: PRODJi)
Writing application : VirtualDubMod 1.5.10.2 (build 2540/release)
Copyright : HQ-ViDEO (www.hq-video.ru)
Comment : 16.11.2008
Video
ID : 0
Format : MPEG-4 Visual
Format profile : Advanced [email protected]
Format settings, BVOP : 2
Format settings, QPel : No
Format settings, GMC : No warppoints
Format settings, Matrix : Custom
Codec ID : XVID
Codec ID/Hint : XviD
Duration : 1h 28mn
Bit rate : 1 919 Kbps
Width : 720 pixels
Height : 304 pixels
Display aspect ratio : 2.35:1
Frame rate : 25.000 fps
Color space : YUV
Chroma subsampling : 4:2:0
Bit depth : 8 bits
Scan type : Progressive
Compression mode : Lossy
Bits/(Pixel*Frame) : 0.351
Stream size : 1.18 GiB (81%)
Writing library : XviD 1.1.2 (UTC 2006-11-01)
Audio
ID : 1
Format : AC-3
Format/Info : Audio Coding 3
Mode extension : CM (complete main)
Format settings, Endianness : Big
Codec ID : 2000
Duration : 1h 28mn
Bit rate mode : Constant
Bit rate : 448 Kbps
Channel(s) : 6 channels
Channel positions : Front: L C R, Side: L R, LFE
Sampling rate : 48.0 KHz
Compression mode : Lossy
Delay relative to video : 2s 0ms
Stream size : 282 MiB (19%)
Alignment : Split accross interleaves
Interleave, duration : 40 ms (1.00 video frame)

Скриншот c названием фильма

Скриншоты




Кунг-фу Панда 3 / Kung Fu Panda 3 (2016)

- -Кунг-фу Панда 3 / Kung Fu Panda 3- Год выпуска: 2016
Страна: Китай, США
Жанр: мультфильм, боевик, комедия, приключения, семейный
Продолжительность: 01:35:04
Перевод: Дублированный [iTunes]-Режиссер:Алессандро Карлони, Дженнифер Ю-В ролях: Джек Блэк, Брайан Крэнстон, Дастин Хоффман, Анджелина Джоли,
Дж.К. Симмонс, Джеки Чан, Сет Роген, Люси Лью, Дэвид Кросс, Кейт Хадсон-Описание: Воссоединившись со своим давно потерянным отцом,
По отправляется в тайный рай для панд, где его ожидает встреча с множеством веселых сородичей.
Однако вскоре злодей Кай начинает зачистку — он уничтожает кунг-фу мастеров по всему Китаю.
По предстоит сделать невозможное — обучить боевому искусству деревню, полную его веселых,
неуклюжих собратьев, и тем самым превратить их в отряд кунг-фу панд.-Качество:WEB-DLRip
Формат: AVI
Видео: Xvid 720x304 23.976fps 1661kbps
Аудио: Dolby AC3 48000Hz 6ch 384kbps
-

MediaInfo

General
Complete name : D:\Films\kung - fu panda trilogy\Panda.III.2015.D.WEB-DLRip.14OOMB.avi
Format : AVI
Format/Info : Audio Video Interleave
File size : 1.37 GiB
Duration : 1h 35mn
Overall bit rate : 2 054 Kbps
Writing application : VirtualDubMod 1.5.10.2 (build 2540/release)
Writing library : VirtualDubMod build 2540/release
Video
ID : 0
Format : MPEG-4 Visual
Format profile : Advanced [email protected]
Format settings, BVOP : 2
Format settings, QPel : No
Format settings, GMC : No warppoints
Format settings, Matrix : Default (MPEG)
Codec ID : XVID
Codec ID/Hint : XviD
Duration : 1h 35mn
Bit rate : 1 662 Kbps
Width : 720 pixels
Height : 304 pixels
Display aspect ratio : 2.35:1
Frame rate : 23.976 fps
Color space : YUV
Chroma subsampling : 4:2:0
Bit depth : 8 bits
Scan type : Progressive
Compression mode : Lossy
Bits/(Pixel*Frame) : 0.317
Stream size : 1.11 GiB (81%)
Writing library : XviD 1.2.1 (UTC 2008-12-04)
Audio
ID : 1
Format : AC-3
Format/Info : Audio Coding 3
Mode extension : CM (complete main)
Format settings, Endianness : Big
Codec ID : 2000
Duration : 1h 34mn
Bit rate mode : Constant
Bit rate : 384 Kbps
Channel(s) : 6 channels
Channel positions : Front: L C R, Side: L R, LFE
Sampling rate : 48.0 KHz
Compression mode : Lossy
Stream size : 261 MiB (19%)
Alignment : Split accross interleaves
Interleave, duration : 42 ms (1.00 video frame)
Interleave, preload duration : 500 ms

Скриншоты






Последний раз редактировалось: ruhal (2016-04-05 13:39), всего редактировалось 1 раз

Создавать темы 02-Апр-2016 12:32

[Профиль]  [ЛС] 

sunny32

Стаж: 3 года 11 месяцев

Сообщений: 52

Симпатии: 8

ruhal, спасибо

Комментарий от ruhal


aa

Создавать темы 04-Апр-2016 17:53

[Профиль]  [ЛС] 

zerkinov

Стаж: 1 год 10 месяцев

Сообщений: 1

Раздача будет?

Создавать темы 15-Апр-2016 20:08

[Профиль]  [ЛС] 

lana

Стаж: 1 год 7 месяцев

Сообщений: 10

Симпатии: 1

Помогите скачать пожалуйста

Создавать темы 02-Июл-2016 22:01

[Профиль]  [ЛС] 

lana

Стаж: 1 год 7 месяцев

Сообщений: 10

Симпатии: 1

Так медленно, просто ужас

Создавать темы 02-Июл-2016 22:35

[Профиль]  [ЛС] 

iamrazer

Стаж: 2 года 6 месяцев

Сообщений: 31

Симпатии: 3

раздаачуу

Создавать темы 22-Сен-2016 21:38

[Профиль]  [ЛС] 
Показать сообщения:    
Ответить на тему

Текущее время: 20-Сен 03:39

Часовой пояс: UTC + 5



Вы не можете начинать темы
Вы не можете отвечать на сообщения
Вы не можете редактировать свои сообщения
Вы не можете удалять свои сообщения
Вы не можете голосовать в опросах
Вы не можете прикреплять файлы к сообщениям
Вы не можете скачивать файлы